Венди и Люси / Wendy and Lucy (Келли Райхардт / Kelly Reichardt) [2008, США, драма, BDRip 720p] DVO (R5) + DVO (Elrom) + Original (Eng) + Sub (Rus, Eng)


 

[Цитировать]

Венди и Люси / Wendy and Lucy
Год выпуска: 2008
Страна: США
Жанр: драма
Продолжительность: 01:20:15
Перевод №1: профессиональный двухголосый закадровый (R5)
Перевод №2: профессиональный двухголосый закадровый (Elrom)
Cубтитры: русские, английские
Оригинальная аудиодорожка: английская
Оглавление: 10 глав
Режиссёр: Келли Райхардт /Kelly Reichardt/
В ролях: Мишель Уильямс /Michelle Williams/, Уилл Пэттон /Will Patton/, Уолли Далтон /Wally Dalton/, Уилл Олдхэм /Will Oldham/, Джон Робинсон /John Robinson/, Дирдри О’Коннелл /Deirdre O'Connell/, Люси /Lucy/, Ларри Фесенден /Larry Fessenden/
Описание:
Девушка Венди добирается своим ходом на Аляску - на заработки и, очевидно, в поисках самой себя. В некоем безымянном провинциальном городе у нее ломается машина, а потом еще и пропадает единственное дорогое ей существо - дворняга Люси.
Дополнительная информация:
IMDB User Rating→: 7.1/10 (11,111 votes)
Рейтинг фильма КиноПоиск.Ru→: 6.810 (848 голосов)
  • 5.1 дорожка на DVD R5 — дутая.
Качество: BDRip (by VietDuc19@VietHD)
Контейнер: MKV
Видеопоток: 1280x720p, 23.976 fps, x264 ~11663 kbps
Аудиопоток №1 (RUS): DD 2.0, 48 kHz, 192 kbps | профессиональный двухголосый закадровый (R5)
Аудиопоток №2 (RUS): DD 2.0, 48 kHz, 192 kbps | профессиональный двухголосый закадровый (Elrom)
Аудиопоток №3 (ENG): DD 5.1, 48 kHz, 640 kbps
Субтитры №1 (RUS): SRT/UTF8 | R5
Субтитры №2 (RUS): SRT/UTF8 | tovt
Субтитры №3 (ENG): SRT/UTF8
Сэмпл: Яндекс.Диск→, multi-up→

x264 Log

x264 [info]: frame I:579   Avg QP:16.45  size:122660
x264 [info]: frame P:17369 Avg QP:17.25  size: 74014
x264 [info]: frame B:97491 Avg QP:18.51  size: 58085
x264 [info]: consecutive B-frames:  0.9%  0.9%  2.1%  7.7%  8.5% 25.8%  9.5%  4.4%  6.3% 10.2%  6.9%  9.1%  7.7%
encoded 115439 frames, 4.49 fps, 11662.93 kb/s

MediaInfo

General
Unique ID                   : 179330709549422931862252455534660082756 (0x86E9D69DE7C4C017949A5DAB1196DC44)
Complete name               : Wendy.and.Lucy.2008.720p.BDRip.x264.DD.SRT-VietHD.mkv
Format                      : Matroska
Format version              : Version 4 / Version 2
File size                   : 7.11 GiB
Duration                    : 1h 20mn
Overall bit rate            : 12.7 Mbps
Movie name                  : Wendy and Lucy (2008) 720p BDRip by VietHD
Encoded date                : UTC 2015-03-03 12:13:31
Writing application         : mkvmerge v7.5.0 ('Glass Culture') 64bit built on Jan  4 2015 16:48:44
Writing library             : libebml v1.3.1 + libmatroska v1.4.2
DURATION                    : 01:11:58.398000000
NUMBER_OF_FRAMES            : 552
NUMBER_OF_BYTES             : 18166
_STATISTICS_WRITING_APP     : mkvmerge v7.5.0 ('Glass Culture') 64bit built on Jan  4 2015 16:48:44
_STATISTICS_WRITING_DATE_UT : 2015-03-03 12:13:31
_STATISTICS_TAGS            : BPS DURATION NUMBER_OF_FRAMES NUMBER_OF_BYTES
Video
ID                          : 1
Format                      : AVC
Format/Info                 : Advanced Video Codec
Format profile              : High@L4.1
Format settings, CABAC      : Yes
Format settings, ReFrames   : 9 frames
Codec ID                    : V_MPEG4/ISO/AVC
Duration                    : 1h 20mn
Bit rate                    : 11.4 Mbps
Width                       : 1 280 pixels
Height                      : 720 pixels
Display aspect ratio        : 16:9
Frame rate mode             : Constant
Frame rate                  : 23.976 fps
Color space                 : YUV
Chroma subsampling          : 4:2:0
Bit depth                   : 8 bits
Scan type                   : Progressive
Bits/(Pixel*Frame)          : 0.517
Stream size                 : 6.40 GiB (90%)
Title                       : 1280x720, 23.976 fps, x264 ~11663 kbps
Writing library             : x264 core 133 r2334 a3ac64b
Encoding settings           : cabac=1 / ref=9 / deblock=1:-3:-3 / analyse=0x3:0x133 / me=umh / subme=10 / psy=1 / psy_rd=1.30:0.00 / mixed_ref=1 / me_range=24 / chroma_me=1 / trellis=2 / 8x8dct=1 / cqm=0 / deadzone=21,11 / fast_pskip=1 / chroma_qp_offset=-2 / threads=12 / lookahead_threads=3 / sliced_threads=0 / nr=0 / decimate=1 / interlaced=0 / bluray_compat=0 / constrained_intra=0 / bframes=12 / b_pyramid=2 / b_adapt=2 / b_bias=0 / direct=3 / weightb=1 / open_gop=0 / weightp=2 / keyint=250 / keyint_min=23 / scenecut=40 / intra_refresh=0 / rc=crf / mbtree=0 / crf=17.0 / qcomp=0.66 / qpmin=0 / qpmax=69 / qpstep=4 / ip_ratio=1.24 / pb_ratio=1.16 / aq=2:0.70
Language                    : English
Default                     : Yes
Forced                      : No
Matrix coefficients         : BT.709
Color range                 : Limited
DURATION                    : 01:20:14.769000000
NUMBER_OF_FRAMES            : 115439
NUMBER_OF_BYTES             : 7019288852
_STATISTICS_WRITING_APP     : mkvmerge v7.5.0 ('Glass Culture') 64bit built on Jan  4 2015 16:48:44
_STATISTICS_WRITING_DATE_UT : 2015-03-03 12:13:31
_STATISTICS_TAGS            : BPS DURATION NUMBER_OF_FRAMES NUMBER_OF_BYTES
Audio #1
ID                          : 2
Format                      : AC-3
Format/Info                 : Audio Coding 3
Mode extension              : CM (complete main)
Format settings, Endianness : Big
Codec ID                    : A_AC3
Duration                    : 1h 20mn
Bit rate mode               : Constant
Bit rate                    : 192 Kbps
Channel(s)                  : 2 channels
Channel positions           : Front: L R
Sampling rate               : 48.0 KHz
Bit depth                   : 16 bits
Compression mode            : Lossy
Stream size                 : 110 MiB (2%)
Title                       : RUS DVO R5 DD 2.0, 48 kHz, 192 kbps
Language                    : Russian
Default                     : Yes
Forced                      : No
Audio #2
ID                          : 3
Format                      : AC-3
Format/Info                 : Audio Coding 3
Format profile              : Dolby Digital
Mode extension              : CM (complete main)
Format settings, Endianness : Big
Codec ID                    : A_AC3
Duration                    : 1h 20mn
Bit rate mode               : Constant
Bit rate                    : 192 Kbps
Channel(s)                  : 2 channels
Channel positions           : Front: L R
Sampling rate               : 48.0 KHz
Bit depth                   : 16 bits
Compression mode            : Lossy
Stream size                 : 110 MiB (2%)
Title                       : RUS DVO Elrom DD 2.0, 48 kHz, 192 kbps
Language                    : Russian
Default                     : No
Forced                      : No
Audio #3
ID                          : 4
Format                      : AC-3
Format/Info                 : Audio Coding 3
Mode extension              : CM (complete main)
Format settings, Endianness : Big
Codec ID                    : A_AC3
Duration                    : 1h 20mn
Bit rate mode               : Constant
Bit rate                    : 640 Kbps
Channel(s)                  : 6 channels
Channel positions           : Front: L C R, Side: L R, LFE
Sampling rate               : 48.0 KHz
Bit depth                   : 16 bits
Compression mode            : Lossy
Stream size                 : 367 MiB (5%)
Title                       : ENG DD 5.1, 48 kHz, 640 kbps
Language                    : English
Default                     : No
Forced                      : No
Text #1
ID                          : 5
Format                      : UTF-8
Codec ID                    : S_TEXT/UTF8
Codec ID/Info               : UTF-8 Plain Text
Title                       : RUS R5 SRT
Language                    : Russian
Default                     : No
Forced                      : No
Text #2
ID                          : 6
Format                      : UTF-8
Codec ID                    : S_TEXT/UTF8
Codec ID/Info               : UTF-8 Plain Text
Title                       : RUS tovt SRT
Language                    : Russian
Default                     : No
Forced                      : No
Text #3
ID                          : 7
Format                      : UTF-8
Codec ID                    : S_TEXT/UTF8
Codec ID/Info               : UTF-8 Plain Text
Title                       : ENG SRT
Language                    : English
Default                     : No
Forced                      : No
Menu
00:00:00.000                : en:Chapter 1
00:08:22.877                : en:Chapter 2
00:16:55.806                : en:Chapter 3
00:28:29.625                : en:Chapter 4
00:40:08.906                : en:Chapter 5
00:48:26.278                : en:Chapter 6
00:55:36.625                : en:Chapter 7
01:01:35.150                : en:Chapter 8
01:08:40.074                : en:Chapter 9
01:15:08.337                : en:Chapter 10

Скриншоты


Source vs. VietHD





Показать сообщения:    

Текущее время: 06-Дек 13:15

Часовой пояс: UTC + 3


Вы не можете начинать темы
Вы не можете отвечать на сообщения
Вы не можете редактировать свои сообщения
Вы не можете удалять свои сообщения
Вы не можете голосовать в опросах
Вы не можете прикреплять файлы к сообщениям
Вы не можете скачивать файлы