Поцелуй женщины-паука / Kiss of the Spider Woman (Эктор Бабенко / Hector Babenco) [1985, Бразилия, США, драма, BDRip 1080p] DVO + AVO + Sub Rus, Eng + Original Eng


 

[Цитировать]

Поцелуй женщины-паука / Kiss of the Spider Woman
Страна: Бразилия, США
Студия: FilmDallas Pictures, HB Filmes
Жанр: драма
Год выпуска: 1985
Продолжительность: 02:00:39
Перевод: Профессиональный (двухголосый закадровый) студия Elrom
Перевод 2: Авторский (одноголосый закадровый) М. Иванов
Cубтитры: русские, английские
Оригинальная аудиодорожка: английский
Режиссер: Эктор Бабенко / Hector Babenco
В ролях: Уильям Хёрт, Рауль Хулиа, Соня Брага, Жозе Левгой, Милтон Гонсалвис, Мириам Пиреш, Нуно Леаль Майя, Фернандо Торрес, Патрицио Биссо, Эрсон Капри
Описание: Двое в южноамериканской тюрьме делят одну камеру, один — гомосексуалист — за недостойное поведение, другой по политическим мотивам. Пока первый пытается убежать от реальности, другой думает о причинах сложившейся ситуации. Им придётся научиться понимать и уважать друг друга.

Sample
Тип релиза: BDRip 1080p - Wiki
Контейнер: MKV
Видео: MPEG4 AVC Video, H264, 1920x1036, 23.976 fps, 10794 Kbps
Аудио: Russian (Dolby AC3, 2 ch, 192 kbps, 16 bits, 48.0 KHz) - DVO Elrom
Аудио 2: Russian (Dolby AC3, 2 ch, 192 kbps, 16 bits, 48.0 KHz) - AVO М. Иванов
Аудио 3: English (DTS, 6 ch, 1509 kbps, 16 bits, 48.0 KHz) - оригинал
Формат субтитров: softsub (SRT)

MediaInfo

General
Unique ID : 224526629765813339163609722670412294242 (0xA8EA418673D855A6972C6EB804F96862)
Complete name : E:\1\Kiss of the Spider Woman 1985 BDRip 1080p-WiKi.mkv
Format : Matroska
Format version : Version 4 / Version 2
File size : 10.8 GiB
Duration : 2h 0mn
Overall bit rate mode : Variable
Overall bit rate : 12.8 Mbps
Encoded date : UTC 2015-03-02 11:10:15
Writing application : mkvmerge v6.1.0 ('Old Devil') built on Mar 2 2013 14:32:37
Writing library : libebml v1.3.0 + libmatroska v1.4.0
Video
ID : 1
Format : AVC
Format/Info : Advanced Video Codec
Format profile : High@L4.1
Format settings, CABAC : Yes
Format settings, ReFrames : 4 frames
Codec ID : V_MPEG4/ISO/AVC
Duration : 2h 0mn
Bit rate mode : Variable
Bit rate : 10.8 Mbps
Maximum bit rate : 40.0 Mbps
Width : 1 920 pixels
Height : 1 036 pixels
Display aspect ratio : 1.85:1
Frame rate mode : Constant
Frame rate : 23.976 fps
Color space : YUV
Chroma subsampling : 4:2:0
Bit depth : 8 bits
Scan type : Progressive
Bits/(Pixel*Frame) : 0.226
Stream size : 8.96 GiB (83%)
Writing library : x264 core 129 r2245+704+36 8e61944 tMod+MixAQ [8-bit@4:2:0 X86_64]
Encoding settings : cabac=1 / ref=4 / deblock=1:-3:-3 / analyse=0x3:0x133 / me=umh / subme=11 / psy=1 / fade_compensate=0.00 / psy_rd=1.05:0.10 / mixed_ref=1 / me_range=64 / chroma_me=1 / trellis=2 / 8x8dct=1 / cqm=0 / deadzone=21,11 / fast_pskip=0 / chroma_qp_offset=-3 / threads=12 / lookahead_threads=2 / sliced_threads=0 / nr=0 / decimate=0 / interlaced=0 / bluray_compat=0 / constrained_intra=0 / fgo=0 / bframes=10 / b_pyramid=2 / b_adapt=2 / b_bias=0 / direct=3 / weightb=1 / open_gop=0 / weightp=2 / keyint=250 / keyint_min=23 / scenecut=40 / intra_refresh=0 / rc_lookahead=80 / rc=2pass / mbtree=1 / bitrate=10794 / ratetol=1.0 / qcomp=0.70 / qpmin=0 / qpmax=69 / qpstep=4 / cplxblur=20.0 / qblur=0.5 / ip_ratio=1.40 / aq=3 / aq-strength=0.85 / aq-sensitivity=10.00 / aq-ifactor=1.00 / aq-pfactor=1.00 / aq-bfactor=1.00 / aq2
Language : English
Default : Yes
Forced : No
Matrix coefficients : BT.709
Audio #1
ID : 2
Format : AC-3
Format/Info : Audio Coding 3
Mode extension : CM (complete main)
Format settings, Endianness : Big
Codec ID : A_AC3
Duration : 2h 0mn
Bit rate mode : Constant
Bit rate : 192 Kbps
Channel count : 2 channels
Channel positions : Front: L R
Sampling rate : 48.0 KHz
Bit depth : 16 bits
Compression mode : Lossy
Stream size : 166 MiB (2%)
Title : DVO Elrom
Language : Russian
Default : Yes
Forced : Yes
Audio #2
ID : 3
Format : AC-3
Format/Info : Audio Coding 3
Mode extension : CM (complete main)
Format settings, Endianness : Big
Codec ID : A_AC3
Duration : 2h 0mn
Bit rate mode : Constant
Bit rate : 192 Kbps
Channel count : 2 channels
Channel positions : Front: L R
Sampling rate : 48.0 KHz
Bit depth : 16 bits
Compression mode : Lossy
Stream size : 166 MiB (2%)
Title : AVO М. Иванов
Language : Russian
Default : No
Forced : No
Audio #3
ID : 4
Format : DTS
Format/Info : Digital Theater Systems
Mode : 16
Format settings, Endianness : Big
Codec ID : A_DTS
Duration : 2h 0mn
Bit rate mode : Constant
Bit rate : 1 509 Kbps
Channel count : 6 channels
Channel positions : Front: L C R, Side: L R, LFE
Sampling rate : 48.0 KHz
Bit depth : 16 bits
Compression mode : Lossy
Stream size : 1.27 GiB (12%)
Language : English
Default : No
Forced : No
Text #1
ID : 5
Format : UTF-8
Codec ID : S_TEXT/UTF8
Codec ID/Info : UTF-8 Plain Text
Language : Russian
Default : No
Forced : No
Text #2
ID : 6
Format : UTF-8
Codec ID : S_TEXT/UTF8
Codec ID/Info : UTF-8 Plain Text
Language : English
Default : No
Forced : No
Menu
00:00:00.000 : en:00:00:00.000
00:08:49.487 : en:00:08:49.487
00:13:10.039 : en:00:13:10.039
00:16:45.713 : en:00:16:45.713
00:20:39.196 : en:00:20:39.196
00:28:10.480 : en:00:28:10.480
00:36:57.715 : en:00:36:57.715
00:47:27.678 : en:00:47:27.678
00:51:21.244 : en:00:51:21.244
00:57:44.335 : en:00:57:44.335
01:08:45.871 : en:01:08:45.871
01:16:57.613 : en:01:16:57.613
01:26:15.962 : en:01:26:15.962
01:34:33.793 : en:01:34:33.793
01:46:50.112 : en:01:46:50.112
01:52:25.447 : en:01:52:25.447

Скриншоты




Показать сообщения:    

Текущее время: 10-Дек 02:17

Часовой пояс: UTC + 3


Вы не можете начинать темы
Вы не можете отвечать на сообщения
Вы не можете редактировать свои сообщения
Вы не можете удалять свои сообщения
Вы не можете голосовать в опросах
Вы не можете прикреплять файлы к сообщениям
Вы не можете скачивать файлы