Поезда под пристальным наблюдением / Ostre sledovane vlaky / Closely Watched Trains (Иржи Мензель / Jiri Menzel) [1966, Чехословакия, драма, BDRip 720p] MVO (5 канал Петербург) + AVO (Алексеев) + Original Cze + Sub Cze, Eng


 

[Цитировать]

Поезда под пристальным наблюдением / Ostre sledovane vlaky / Closely Watched Trains
Страна: Чехословакия
Студия: Filmove Studio Barrandov
Жанр: драма
Год выпуска: 1966
Продолжительность: 01:32:47
Перевод 1: профессиональный (многоголосый закадровый) /5 канал Петербург/
Перевод 2: авторский (одноголосый закадровый) /Антон Алексеев/
Cубтитры: чешские, английские
Оригинальная аудиодорожка: чешский
Режиссер: Иржи Мензель / Jiri Menzel
В ролях: Вацлав Некар /Vaclav Neckar/, Йозеф Шомр /Josef Somr/, Властимил Бродский /Vlastimil Brodsky/, Владимир Валента /Vladimir Valenta/, Алоис Вачек /Alois Vachek/, Фердинанд Крута /Ferdinand Kruta/, Йитка Скоффин /Jitka Scoffin /, Итка Зеленогорска /Jitka Zelenohorska/, Надя Урбанкова /Nada Urbankova/, Либуше Гавелкова /Libuse Havelkova/
Описание:1944 год. Оккупированная фашистами Богемия. На маленькой железнодорожной станции начинает работать молодой паренек Милош Хрма. Новичок пытается во всем равняться на диспетчера Губичку, у которого и на работе все в порядке и на сердечном фронте: редкая дама не попадает в объятия Губички. Милош же влюблен в кондуктора Машу. Но пока разгораются любовные страсти, Восточный фронт становится все ближе и ближе. Партизаны дают о себе знать все чаще и чаще, и немецкое командование отдает приказ взять под особое наблюдение все поезда, идущие в сторону фронта...Доп. информация:
КиноПоиск
IMDb
Сэмпл: http://multi-up.com/1035938
Тип релиза: BDRip 720p
Контейнер: MKV
Видео: MPEG-4 AVC Video / 9915 Kbps / 986x720 / 24.000 fps
Аудио 1: Russian / AC3 / 1.0 / 48 kHz / 96 Kbps
Аудио 2: Russian / AC3 / 1.0 / 48 kHz / 96 Kbps
Аудио 3: Czech / FLAC / 1.0 / 48 kHz / 262 Kbps
Формат субтитров: softsub (SRT)

MediaInfo

General
Unique ID : 222136505540640889949978160427915301568 (0xA71DEF4D7EA85B7D88B94EABC69052C0)
Complete name : F:\Ostre.sledovane.vlaky.1966.720p.BluRay.FLAC.1.0.x264-DON-RUS.mkv
Format : Matroska
Format version : Version 4 / Version 2
File size : 6.72 GiB
Duration : 1h 32mn
Overall bit rate mode : Variable
Overall bit rate : 10.4 Mbps
Encoded date : UTC 2015-03-01 09:09:48
Writing application : mkvmerge v7.5.0 ('Glass Culture') 64bit built on Jan 4 2015 16:48:44
Writing library : libebml v1.3.1 + libmatroska v1.4.2
DURATION : 01:32:47.072000000
NUMBER_OF_FRAMES : 173971
NUMBER_OF_BYTES : 66804864
_STATISTICS_WRITING_APP : mkvmerge v7.5.0 ('Glass Culture') 64bit built on Jan 4 2015 16:48:44
_STATISTICS_WRITING_DATE_UTC : 2015-03-01 09:09:48
_STATISTICS_TAGS : BPS DURATION NUMBER_OF_FRAMES NUMBER_OF_BYTES
Video
ID : 1
Format : AVC
Format/Info : Advanced Video Codec
Format profile : High@L4.1
Format settings, CABAC : Yes
Format settings, ReFrames : 11 frames
Codec ID : V_MPEG4/ISO/AVC
Duration : 1h 32mn
Width : 986 pixels
Height : 720 pixels
Display aspect ratio : 4:3
Frame rate mode : Constant
Frame rate : 24.000 fps
Color space : YUV
Chroma subsampling : 4:2:0
Bit depth : 8 bits
Scan type : Progressive
Title : Ostre.sledovane.vlaky.1966.720p.BluRay.FLAC.1.0.x264-DON
Writing library : x264 core 140 r2377 1ca7bb9
Encoding settings : cabac=1 / ref=11 / deblock=1:-3:-3 / analyse=0x3:0x133 / me=umh / subme=10 / psy=1 / psy_rd=1.05:0.00 / mixed_ref=1 / me_range=48 / chroma_me=1 / trellis=2 / 8x8dct=1 / cqm=0 / deadzone=21,11 / fast_pskip=0 / chroma_qp_offset=-2 / threads=12 / lookahead_threads=2 / sliced_threads=0 / nr=0 / decimate=0 / interlaced=0 / bluray_compat=0 / constrained_intra=0 / bframes=8 / b_pyramid=2 / b_adapt=2 / b_bias=0 / direct=3 / weightb=1 / open_gop=0 / weightp=2 / keyint=240 / keyint_min=24 / scenecut=40 / intra_refresh=0 / rc_lookahead=60 / rc=crf / mbtree=0 / crf=18.8 / qcomp=0.65 / qpmin=0 / qpmax=69 / qpstep=4 / vbv_maxrate=62500 / vbv_bufsize=78125 / crf_max=0.0 / nal_hrd=none / filler=0 / ip_ratio=1.15 / pb_ratio=1.05 / aq=1:0.60
Language : Czech
Default : Yes
Forced : No
DURATION : 01:32:47.084000000
NUMBER_OF_FRAMES : 133610
NUMBER_OF_BYTES : 6899784103
_STATISTICS_WRITING_APP : mkvmerge v7.5.0 ('Glass Culture') 64bit built on Jan 4 2015 16:48:44
_STATISTICS_WRITING_DATE_UTC : 2015-03-01 09:09:48
_STATISTICS_TAGS : BPS DURATION NUMBER_OF_FRAMES NUMBER_OF_BYTES
Audio #1
ID : 2
Format : AC-3
Format/Info : Audio Coding 3
Mode extension : CM (complete main)
Format settings, Endianness : Big
Codec ID : A_AC3
Duration : 1h 32mn
Bit rate mode : Constant
Bit rate : 96.0 Kbps
Channel(s) : 1 channel
Channel positions : Front: C
Sampling rate : 48.0 KHz
Bit depth : 16 bits
Compression mode : Lossy
Stream size : 63.7 MiB (1%)
Title : 5 канал Петербург
Language : Russian
Default : Yes
Forced : No
Audio #2
ID : 3
Format : AC-3
Format/Info : Audio Coding 3
Mode extension : CM (complete main)
Format settings, Endianness : Big
Codec ID : A_AC3
Duration : 1h 32mn
Bit rate mode : Constant
Bit rate : 96.0 Kbps
Channel(s) : 1 channel
Channel positions : Front: C
Sampling rate : 48.0 KHz
Bit depth : 16 bits
Compression mode : Lossy
Stream size : 63.7 MiB (1%)
Title : Антон Алексеев
Language : Russian
Default : No
Forced : No
Audio #3
ID : 4
Format : FLAC
Format/Info : Free Lossless Audio Codec
Codec ID : A_FLAC
Duration : 1h 32mn
Bit rate mode : Variable
Channel(s) : 1 channel
Sampling rate : 48.0 KHz
Bit depth : 16 bits
Writing library : libFLAC 1.2.1 (UTC 2007-09-17)
Language : Czech
Default : No
Forced : No
Text #1
ID : 5
Format : UTF-8
Codec ID : S_TEXT/UTF8
Codec ID/Info : UTF-8 Plain Text
Title : SDH
Language : Czech
Default : No
Forced : No
Text #2
ID : 6
Format : UTF-8
Codec ID : S_TEXT/UTF8
Codec ID/Info : UTF-8 Plain Text
Language : English
Default : No
Forced : No
Menu
00:00:00.000 : en:00:00:00.000
00:11:57.917 : en:00:11:57.917
00:24:08.167 : en:00:24:08.167
00:37:10.750 : en:00:37:10.750
00:49:52.750 : en:00:49:52.750
00:59:26.500 : en:00:59:26.500
01:09:54.792 : en:01:09:54.792
01:22:17.500 : en:01:22:17.500

Скриншоты




Показать сообщения:    

Текущее время: 06-Дек 19:02

Часовой пояс: UTC + 3


Вы не можете начинать темы
Вы не можете отвечать на сообщения
Вы не можете редактировать свои сообщения
Вы не можете удалять свои сообщения
Вы не можете голосовать в опросах
Вы не можете прикреплять файлы к сообщениям
Вы не можете скачивать файлы