Смысл жизни по Монти Пайтону / The Meaning of Life (Терри Джонс / Terry Jones, Терри Гиллиам / Terry Gilliam) [1983, Великобритания, мюзикл, комедия, BDRip 720p] 4x MVO + 3x AVO + 2x VO + Original Eng + Sub Rus, Eng + Comm


 

[Цитировать]

Смысл жизни по Монти Пайтону / The Meaning of Life
Страна: Великобритания
Жанр: мюзикл, комедия
Год выпуска: 1983
Продолжительность: 01:47:00
Перевод: Профессиональный (многоголосый закадровый) Neoclassica
Перевод: Профессиональный (многоголосый закадровый) Мега Видео
Перевод: Профессиональный (многоголосый закадровый) ГТРК-Культура
Перевод: Профессиональный (многоголосый закадровый) СТС
Перевод: Авторский (одноголосый закадровый) Антон Алексеев
Перевод: Авторский (одноголосый закадровый) Василий Горчаков
Перевод: Авторский (одноголосый закадровый) Михаил Иванов
Перевод: Одноголосый закадровый
Перевод: Одноголосый закадровый Игорь Кукушкин aka Ёж ушастый
Cубтитры: Russian (Neoclassica, Universal Pictures, Вадим Филиппов), English, English Commentary (Proper, Stupid)
Оригинальная аудиодорожка: английский
Режиссер: Терри Джонс / Terry Jones, Терри Гиллиам / Terry Gilliam
В ролях: Грэм Чепмен, Джон Клиз, Эрик Айдл, Терри Джонс, Майкл Пэйлин, Терри Гиллиам, Кэрол Кливлэнд, Саймон Джонс, Патриция Куинн, Джуди Лу
Описание: Картина состоит из нескольких новелл, которые, по мнению их авторов, должны некоторым образом пролить свет на тот туманный вопрос, которым терзается любой из нас на разных этапах своего существования — «в чем смысл жизни?».
imdb | kinopoisk
Сэмпл: http://sendfile.su/1085507
Тип релиза: BDRip 720p - EbP (thnx MusicalMind)
Контейнер: MKV
--Видео: AVC 1280x694 (1.85:1) 23.976 fps, 9828 kbps
Аудио: DTS Russian 5.1 / 48 kHz / 768 kbps / 24-bit | MVO Neoclassica
Аудио: Dolby Digital Audio Russian 5.1 / 48 kHz / 384 kbps | MVO Мега Видео
Аудио: Dolby Digital Audio Russian 2.0 / 48 kHz / 192 kbps | MVO ГТРК-Культура
Аудио: Dolby Digital Audio Russian 2.0 / 48 kHz / 192 kbps | MVO СТС (со вставкой из MVO Мега Видео)
Аудио: Dolby Digital Audio Russian 5.1 / 48 kHz / 448 kbps | Алексеев
Аудио: Dolby Digital Audio Russian 5.1 / 48 kHz / 448 kbps | Горчаков
Аудио: Dolby Digital Audio Russian 2.0 / 48 kHz / 192 kbps | Иванов (короткометражка озвучена Горчаковым)
Аудио: Dolby Digital Audio Russian 2.0 / 48 kHz / 192 kbps | неизвестный (по тексту схож с Ивановым)
Аудио: Dolby Digital Audio Russian 2.0 / 48 kHz / 128 kbps | Кукушкин aka Ёж ушастый
Аудио: Dolby Digital Audio English 5.1 / 48 kHz / 640 kbps
Аудио: AAC 2.0 / 48 kHz / q=0.3 | Proper Commentary
Аудио: AAC 2.0 / 48 kHz / q=0.3 | Stupid Commentary

MI

General
Unique ID : 248759582320167895565008924607872005002 (0xBB255A54A9EFCB0FBA0D56017A0C738A)
Complete name : The Meaning of Life 1983 720p.mkv
Format : Matroska
Format version : Version 4 / Version 2
File size : 10.1 GiB
Duration : 1h 47mn
Overall bit rate : 13.6 Mbps
Movie name : The Meaning of Life (1983)
Encoded date : UTC 2015-02-14 08:14:42
Writing application : mkvmerge v7.3.0 ('Nouages') 32bit built on Oct 22 2014 18:44:01
Writing library : libebml v1.3.0 + libmatroska v1.4.1
DURATION : 01:46:54.019000000
NUMBER_OF_FRAMES : 1353
NUMBER_OF_BYTES : 82635
_STATISTICS_WRITING_APP : mkvmerge v7.3.0 ('Nouages') 32bit built on Oct 22 2014 18:44:01
_STATISTICS_WRITING_DATE_UTC : 2015-02-14 08:14:42
_STATISTICS_TAGS : BPS DURATION NUMBER_OF_FRAMES NUMBER_OF_BYTES
Video
ID : 1
Format : AVC
Format/Info : Advanced Video Codec
Format profile : High@L4.1
Format settings, CABAC : Yes
Format settings, ReFrames : 9 frames
Codec ID : V_MPEG4/ISO/AVC
Duration : 1h 47mn
Nominal bit rate : 9 828 Kbps
Width : 1 280 pixels
Height : 694 pixels
Display aspect ratio : 1.85:1
Frame rate mode : Constant
Frame rate : 23.976 fps
Color space : YUV
Chroma subsampling : 4:2:0
Bit depth : 8 bits
Scan type : Progressive
Bits/(Pixel*Frame) : 0.461
Writing library : x264 core 142 r2409 d6b4e63
Encoding settings : cabac=1 / ref=9 / deblock=1:-3:-3 / analyse=0x3:0x133 / me=umh / subme=11 / psy=1 / psy_rd=1.05:0.00 / mixed_ref=1 / me_range=32 / chroma_me=1 / trellis=2 / 8x8dct=1 / cqm=0 / deadzone=21,11 / fast_pskip=0 / chroma_qp_offset=-2 / threads=48 / lookahead_threads=5 / sliced_threads=0 / nr=0 / decimate=0 / interlaced=0 / bluray_compat=0 / constrained_intra=0 / bframes=9 / b_pyramid=2 / b_adapt=2 / b_bias=0 / direct=3 / weightb=1 / open_gop=0 / weightp=2 / keyint=240 / keyint_min=23 / scenecut=40 / intra_refresh=0 / rc_lookahead=140 / rc=2pass / mbtree=0 / bitrate=9828 / ratetol=1.0 / qcomp=0.60 / qpmin=0 / qpmax=69 / qpstep=4 / cplxblur=20.0 / qblur=0.5 / vbv_maxrate=62500 / vbv_bufsize=78125 / nal_hrd=none / filler=0 / ip_ratio=1.40 / pb_ratio=1.30 / aq=2:0.60
Language : English
Default : Yes
Forced : No
DURATION : 01:46:59.956000000
NUMBER_OF_FRAMES : 153925
NUMBER_OF_BYTES : 7882757998
_STATISTICS_WRITING_APP : mkvmerge v7.3.0 ('Nouages') 32bit built on Oct 22 2014 18:44:01
_STATISTICS_WRITING_DATE_UTC : 2015-02-14 08:14:42
_STATISTICS_TAGS : BPS DURATION NUMBER_OF_FRAMES NUMBER_OF_BYTES
Audio #1
ID : 2
Format : DTS
Format/Info : Digital Theater Systems
Mode : 16
Format settings, Endianness : Big
Codec ID : A_DTS
Duration : 1h 47mn
Bit rate mode : Constant
Bit rate : 755 Kbps
Channel(s) : 6 channels
Channel positions : Front: L C R, Side: L R, LFE
Sampling rate : 48.0 KHz
Bit depth : 24 bits
Compression mode : Lossy
Stream size : 577 MiB (6%)
Title : MVO [Neoclassica]
Language : Russian
Default : Yes
Forced : No
Audio #2
ID : 3
Format : AC-3
Format/Info : Audio Coding 3
Mode extension : CM (complete main)
Format settings, Endianness : Big
Codec ID : A_AC3
Duration : 1h 47mn
Bit rate mode : Constant
Bit rate : 384 Kbps
Channel(s) : 6 channels
Channel positions : Front: L C R, Side: L R, LFE
Sampling rate : 48.0 KHz
Bit depth : 16 bits
Compression mode : Lossy
Stream size : 294 MiB (3%)
Title : MVO [Мега Видео]
Language : Russian
Default : No
Forced : No
Audio #3
ID : 4
Format : AC-3
Format/Info : Audio Coding 3
Mode extension : CM (complete main)
Format settings, Endianness : Big
Codec ID : A_AC3
Duration : 1h 47mn
Bit rate mode : Constant
Bit rate : 192 Kbps
Channel(s) : 2 channels
Channel positions : Front: L R
Sampling rate : 48.0 KHz
Bit depth : 16 bits
Compression mode : Lossy
Stream size : 147 MiB (1%)
Title : MVO [ГТРК-Культура]
Language : Russian
Default : No
Forced : No
Audio #4
ID : 5
Format : AC-3
Format/Info : Audio Coding 3
Mode extension : CM (complete main)
Format settings, Endianness : Big
Codec ID : A_AC3
Duration : 1h 47mn
Bit rate mode : Constant
Bit rate : 192 Kbps
Channel(s) : 2 channels
Channel positions : Front: L R
Sampling rate : 48.0 KHz
Bit depth : 16 bits
Compression mode : Lossy
Stream size : 147 MiB (1%)
Title : MVO [СТС]
Language : Russian
Default : No
Forced : No
Audio #5
ID : 6
Format : AC-3
Format/Info : Audio Coding 3
Mode extension : CM (complete main)
Format settings, Endianness : Big
Codec ID : A_AC3
Duration : 1h 47mn
Bit rate mode : Constant
Bit rate : 448 Kbps
Channel(s) : 6 channels
Channel positions : Front: L C R, Side: L R, LFE
Sampling rate : 48.0 KHz
Bit depth : 16 bits
Compression mode : Lossy
Stream size : 343 MiB (3%)
Title : Антон Алексеев
Language : Russian
Default : No
Forced : No
Audio #6
ID : 7
Format : AC-3
Format/Info : Audio Coding 3
Mode extension : CM (complete main)
Format settings, Endianness : Big
Codec ID : A_AC3
Duration : 1h 47mn
Bit rate mode : Constant
Bit rate : 448 Kbps
Channel(s) : 6 channels
Channel positions : Front: L C R, Side: L R, LFE
Sampling rate : 48.0 KHz
Bit depth : 16 bits
Compression mode : Lossy
Stream size : 343 MiB (3%)
Title : Василий Горчаков
Language : Russian
Default : No
Forced : No
Audio #7
ID : 8
Format : AC-3
Format/Info : Audio Coding 3
Mode extension : CM (complete main)
Format settings, Endianness : Big
Codec ID : A_AC3
Duration : 1h 47mn
Bit rate mode : Constant
Bit rate : 192 Kbps
Channel(s) : 2 channels
Channel positions : Front: L R
Sampling rate : 48.0 KHz
Bit depth : 16 bits
Compression mode : Lossy
Stream size : 147 MiB (1%)
Title : Михаил Иванов
Language : Russian
Default : No
Forced : No
Audio #8
ID : 9
Format : AC-3
Format/Info : Audio Coding 3
Mode extension : CM (complete main)
Format settings, Endianness : Big
Codec ID : A_AC3
Duration : 1h 47mn
Bit rate mode : Constant
Bit rate : 192 Kbps
Channel(s) : 2 channels
Channel positions : Front: L R
Sampling rate : 48.0 KHz
Bit depth : 16 bits
Compression mode : Lossy
Stream size : 147 MiB (1%)
Title : неизвестный
Language : Russian
Default : No
Forced : No
Audio #9
ID : 10
Format : AC-3
Format/Info : Audio Coding 3
Mode extension : CM (complete main)
Format settings, Endianness : Big
Codec ID : A_AC3
Duration : 1h 47mn
Bit rate mode : Constant
Bit rate : 128 Kbps
Channel(s) : 2 channels
Channel positions : Front: L R
Sampling rate : 48.0 KHz
Bit depth : 16 bits
Compression mode : Lossy
Stream size : 98.0 MiB (1%)
Title : Игорь Кукушкин aka Ёж Ушастый
Language : Russian
Default : No
Forced : No
Audio #10
ID : 11
Format : AC-3
Format/Info : Audio Coding 3
Mode extension : CM (complete main)
Format settings, Endianness : Big
Codec ID : A_AC3
Duration : 1h 47mn
Bit rate mode : Constant
Bit rate : 640 Kbps
Channel(s) : 6 channels
Channel positions : Front: L C R, Side: L R, LFE
Sampling rate : 48.0 KHz
Bit depth : 16 bits
Compression mode : Lossy
Stream size : 490 MiB (5%)
Title : English DD5.1 @ 640 Kbps
Language : English
Default : No
Forced : No
Audio #11
ID : 12
Format : AAC
Format/Info : Advanced Audio Codec
Format profile : LC
Codec ID : A_AAC
Duration : 1h 47mn
Channel(s) : 2 channels
Channel positions : Front: L R
Sampling rate : 48.0 KHz
Compression mode : Lossy
Delay relative to video : 9ms
Title : Proper Commentary AAC 2.0 @ Q=0.3
Language : English
Default : No
Forced : No
Audio #12
ID : 13
Format : AAC
Format/Info : Advanced Audio Codec
Format profile : LC
Codec ID : A_AAC
Duration : 1h 47mn
Channel(s) : 2 channels
Channel positions : Front: L R
Sampling rate : 48.0 KHz
Compression mode : Lossy
Delay relative to video : 9ms
Title : Stupid Commentary AAC 2.0 @ Q=0.3
Language : English
Default : No
Forced : No
Text #1
ID : 14
Format : UTF-8
Codec ID : S_TEXT/UTF8
Codec ID/Info : UTF-8 Plain Text
Title : Neoclassica
Language : Russian
Default : No
Forced : No
Text #2
ID : 15
Format : UTF-8
Codec ID : S_TEXT/UTF8
Codec ID/Info : UTF-8 Plain Text
Title : Universal Pictures
Language : Russian
Default : No
Forced : No
Text #3
ID : 16
Format : UTF-8
Codec ID : S_TEXT/UTF8
Codec ID/Info : UTF-8 Plain Text
Title : Вадим Филиппов
Language : Russian
Default : No
Forced : No
Text #4
ID : 17
Format : UTF-8
Codec ID : S_TEXT/UTF8
Codec ID/Info : UTF-8 Plain Text
Title : English
Language : English
Default : No
Forced : No
Text #5
ID : 18
Format : UTF-8
Codec ID : S_TEXT/UTF8
Codec ID/Info : UTF-8 Plain Text
Title : Proper Commentary
Language : English
Default : No
Forced : No
Text #6
ID : 19
Format : UTF-8
Codec ID : S_TEXT/UTF8
Codec ID/Info : UTF-8 Plain Text
Title : Stupid Commentary
Language : English
Default : No
Forced : No
Menu
00:00:00.000 : en:The Meaning of Life
00:16:31.615 : en:Birth
00:20:17.215 : en:Birth In the Third World
00:24:46.943 : en:The Protestant View
00:31:50.199 : en:Religious Education
00:34:19.432 : en:Sed Education
00:37:16.275 : en:Physical Education
00:43:44.830 : en:Fighting Each Other
00:45:04.993 : en:Military Education
00:48:53.096 : en:Officers & Gentlemen
00:51:40.931 : en:A Tiger
00:57:39.581 : en:Find the Truth
01:01:22.553 : en:Philosophy a La Carte
01:03:45.112 : en:The Liver Donor
01:08:36.278 : en:The Galaxy
01:11:13.352 : en:The Very Big Corporation of America
01:15:16.303 : en:Mr Creosote: The Joy of Fat
01:17:44.534 : en:The Meaning of It All
01:24:37.572 : en:The Good Death Guide
01:29:40.291 : en:Autumn Leaves
01:31:39.827 : en:The Grim Reaper
01:32:41.556 : en:Stairway to Heaven
01:39:53.612 : en:Christmas In Heaven
01:41:16.528 : en:The End of the Film
01:43:34.666 : en:End Credits

Скриншоты



Source vs EbP vs AMIABLE vs QDP







Показать сообщения:    

Текущее время: 08-Дек 12:51

Часовой пояс: UTC + 3


Вы не можете начинать темы
Вы не можете отвечать на сообщения
Вы не можете редактировать свои сообщения
Вы не можете удалять свои сообщения
Вы не можете голосовать в опросах
Вы не можете прикреплять файлы к сообщениям
Вы не можете скачивать файлы