Смысл жизни по Монти Пайтону / The Meaning of Life (Терри Джонс / Terry Jones, Терри Гиллиам / Terry Gilliam) [1983, Великобритания, мюзикл, комедия, BDRemux 1080p] 4x MVO + 3x AVO + 2x VO + Original Eng + Sub Rus, Eng + Comm


 

[Цитировать]

Смысл жизни по Монти Пайтону / The Meaning of Life
Страна: Великобритания
Жанр: мюзикл, комедия
Год выпуска: 1983
Продолжительность: 01:47:00
Перевод: Профессиональный (многоголосый закадровый) Neoclassica
Перевод: Профессиональный (многоголосый закадровый) Мега Видео
Перевод: Профессиональный (многоголосый закадровый) ГТРК-Культура
Перевод: Профессиональный (многоголосый закадровый) СТС
Перевод: Авторский (одноголосый закадровый) Антон Алексеев
Перевод: Авторский (одноголосый закадровый) Василий Горчаков
Перевод: Авторский (одноголосый закадровый) Михаил Иванов
Перевод: Одноголосый закадровый
Перевод: Одноголосый закадровый Игорь Кукушкин aka Ёж ушастый
Cубтитры: Russian (Neoclassica, Universal Pictures, Вадим Филиппов), English, English Commentary (Proper, Stupid)
Оригинальная аудиодорожка: английский
Режиссер: Терри Джонс / Terry Jones, Терри Гиллиам / Terry Gilliam
В ролях: Грэм Чепмен, Джон Клиз, Эрик Айдл, Терри Джонс, Майкл Пэйлин, Терри Гиллиам, Кэрол Кливлэнд, Саймон Джонс, Патриция Куинн, Джуди Лу
Описание: Картина состоит из нескольких новелл, которые, по мнению их авторов, должны некоторым образом пролить свет на тот туманный вопрос, которым терзается любой из нас на разных этапах своего существования — «в чем смысл жизни?».
imdb | kinopoisk
Сэмпл: http://sendfile.su/1085304
Тип релиза: BDRemux 1080p
Контейнер: MKV
--Видео: VC-1 Video / 27997 kbps / 1080p / 23.976 fps / 16:9 / High Profile 4.1
Аудио: DTS Russian 5.1 / 48 kHz / 768 kbps / 24-bit | MVO Neoclassica
Аудио: Dolby Digital Audio Russian 5.1 / 48 kHz / 384 kbps | MVO Мега Видео
Аудио: Dolby Digital Audio Russian 2.0 / 48 kHz / 192 kbps | MVO ГТРК-Культура
Аудио: Dolby Digital Audio Russian 2.0 / 48 kHz / 192 kbps | MVO СТС (со вставкой из MVO Мега Видео)
Аудио: Dolby Digital Audio Russian 5.1 / 48 kHz / 448 kbps | Алексеев
Аудио: Dolby Digital Audio Russian 5.1 / 48 kHz / 448 kbps | Горчаков
Аудио: Dolby Digital Audio Russian 2.0 / 48 kHz / 192 kbps | Иванов (короткометражка озвучена Горчаковым)
Аудио: Dolby Digital Audio Russian 2.0 / 48 kHz / 192 kbps | неизвестный (по тексту схож с Ивановым)
Аудио: Dolby Digital Audio Russian 2.0 / 48 kHz / 128 kbps | Кукушкин aka Ёж ушастый
Аудио: DTS-HD Master Audio English 5.1 / 48 kHz / 4210 kbps / 24-bit (DTS Core: 5.1 / 48 kHz / 1509 kbps / 24-bit)
Аудио: Dolby Digital Audio English 2.0 / 48 kHz / 192 kbps | Proper Commentary
Аудио: Dolby Digital Audio English 2.0 / 48 kHz / 192 kbps | Stupid Commentary

MI

General
Unique ID : 238324434854100621649269696689585116028 (0xB34B9DD6A509174BA23C26CF8E75D37C)
Complete name : The Meaning of Life 1983 BDRemux 1080p.mkv
Format : Matroska
Format version : Version 4 / Version 2
File size : 26.6 GiB
Duration : 1h 47mn
Overall bit rate mode : Variable
Overall bit rate : 35.5 Mbps
Movie name : The Meaning of Life (1983)
Encoded date : UTC 2015-02-13 17:55:24
Writing application : mkvmerge v7.3.0 ('Nouages') 32bit built on Oct 22 2014 18:44:01
Writing library : libebml v1.3.0 + libmatroska v1.4.1
DURATION : 01:46:54.019000000
NUMBER_OF_FRAMES : 1353
NUMBER_OF_BYTES : 82635
_STATISTICS_WRITING_APP : mkvmerge v7.3.0 ('Nouages') 32bit built on Oct 22 2014 18:44:01
_STATISTICS_WRITING_DATE_UTC : 2015-02-13 17:55:24
_STATISTICS_TAGS : BPS DURATION NUMBER_OF_FRAMES NUMBER_OF_BYTES
Video
ID : 1
Format : VC-1
Format profile : Advanced@L3
Codec ID : V_MS/VFW/FOURCC / WVC1
Codec ID/Hint : Microsoft
Duration : 1h 47mn
Width : 1 920 pixels
Height : 1 080 pixels
Display aspect ratio : 16:9
Frame rate mode : Constant
Frame rate : 23.976 fps
Color space : YUV
Chroma subsampling : 4:2:0
Bit depth : 8 bits
Scan type : Progressive
Compression mode : Lossy
Title : VC-1 Video / 27997 kbps / 1080p / 23.976 fps / 16:9 / High Profile 4.1
Language : English
Default : Yes
Forced : No
DURATION : 01:46:59.997000000
NUMBER_OF_FRAMES : 153926
NUMBER_OF_BYTES : 22466846291
_STATISTICS_WRITING_APP : mkvmerge v7.3.0 ('Nouages') 32bit built on Oct 22 2014 18:44:01
_STATISTICS_WRITING_DATE_UTC : 2015-02-13 17:55:24
_STATISTICS_TAGS : BPS DURATION NUMBER_OF_FRAMES NUMBER_OF_BYTES
Audio #1
ID : 2
Format : DTS
Format/Info : Digital Theater Systems
Mode : 16
Format settings, Endianness : Big
Codec ID : A_DTS
Duration : 1h 47mn
Bit rate mode : Constant
Bit rate : 755 Kbps
Channel(s) : 6 channels
Channel positions : Front: L C R, Side: L R, LFE
Sampling rate : 48.0 KHz
Bit depth : 24 bits
Compression mode : Lossy
Stream size : 577 MiB (2%)
Title : MVO [Neoclassica]
Language : Russian
Default : Yes
Forced : No
Audio #2
ID : 3
Format : AC-3
Format/Info : Audio Coding 3
Mode extension : CM (complete main)
Format settings, Endianness : Big
Codec ID : A_AC3
Duration : 1h 47mn
Bit rate mode : Constant
Bit rate : 384 Kbps
Channel(s) : 6 channels
Channel positions : Front: L C R, Side: L R, LFE
Sampling rate : 48.0 KHz
Bit depth : 16 bits
Compression mode : Lossy
Stream size : 294 MiB (1%)
Title : MVO [Мега Видео]
Language : Russian
Default : No
Forced : No
Audio #3
ID : 4
Format : AC-3
Format/Info : Audio Coding 3
Mode extension : CM (complete main)
Format settings, Endianness : Big
Codec ID : A_AC3
Duration : 1h 47mn
Bit rate mode : Constant
Bit rate : 192 Kbps
Channel(s) : 2 channels
Channel positions : Front: L R
Sampling rate : 48.0 KHz
Bit depth : 16 bits
Compression mode : Lossy
Stream size : 147 MiB (1%)
Title : MVO [ГТРК-Культура]
Language : Russian
Default : No
Forced : No
Audio #4
ID : 5
Format : AC-3
Format/Info : Audio Coding 3
Mode extension : CM (complete main)
Format settings, Endianness : Big
Codec ID : A_AC3
Duration : 1h 47mn
Bit rate mode : Constant
Bit rate : 192 Kbps
Channel(s) : 2 channels
Channel positions : Front: L R
Sampling rate : 48.0 KHz
Bit depth : 16 bits
Compression mode : Lossy
Stream size : 147 MiB (1%)
Title : MVO [СТС]
Language : Russian
Default : No
Forced : No
Audio #5
ID : 6
Format : AC-3
Format/Info : Audio Coding 3
Mode extension : CM (complete main)
Format settings, Endianness : Big
Codec ID : A_AC3
Duration : 1h 47mn
Bit rate mode : Constant
Bit rate : 448 Kbps
Channel(s) : 6 channels
Channel positions : Front: L C R, Side: L R, LFE
Sampling rate : 48.0 KHz
Bit depth : 16 bits
Compression mode : Lossy
Stream size : 343 MiB (1%)
Title : Антон Алексеев
Language : Russian
Default : No
Forced : No
Audio #6
ID : 7
Format : AC-3
Format/Info : Audio Coding 3
Mode extension : CM (complete main)
Format settings, Endianness : Big
Codec ID : A_AC3
Duration : 1h 47mn
Bit rate mode : Constant
Bit rate : 448 Kbps
Channel(s) : 6 channels
Channel positions : Front: L C R, Side: L R, LFE
Sampling rate : 48.0 KHz
Bit depth : 16 bits
Compression mode : Lossy
Stream size : 343 MiB (1%)
Title : Василий Горчаков
Language : Russian
Default : No
Forced : No
Audio #7
ID : 8
Format : AC-3
Format/Info : Audio Coding 3
Mode extension : CM (complete main)
Format settings, Endianness : Big
Codec ID : A_AC3
Duration : 1h 47mn
Bit rate mode : Constant
Bit rate : 192 Kbps
Channel(s) : 2 channels
Channel positions : Front: L R
Sampling rate : 48.0 KHz
Bit depth : 16 bits
Compression mode : Lossy
Stream size : 147 MiB (1%)
Title : Михаил Иванов
Language : Russian
Default : No
Forced : No
Audio #8
ID : 9
Format : AC-3
Format/Info : Audio Coding 3
Mode extension : CM (complete main)
Format settings, Endianness : Big
Codec ID : A_AC3
Duration : 1h 47mn
Bit rate mode : Constant
Bit rate : 192 Kbps
Channel(s) : 2 channels
Channel positions : Front: L R
Sampling rate : 48.0 KHz
Bit depth : 16 bits
Compression mode : Lossy
Stream size : 147 MiB (1%)
Title : неизвестный
Language : Russian
Default : No
Forced : No
Audio #9
ID : 10
Format : AC-3
Format/Info : Audio Coding 3
Mode extension : CM (complete main)
Format settings, Endianness : Big
Codec ID : A_AC3
Duration : 1h 47mn
Bit rate mode : Constant
Bit rate : 128 Kbps
Channel(s) : 2 channels
Channel positions : Front: L R
Sampling rate : 48.0 KHz
Bit depth : 16 bits
Compression mode : Lossy
Stream size : 98.0 MiB (0%)
Title : Игорь Кукушкин aka Ёж Ушастый
Language : Russian
Default : No
Forced : No
Audio #10
ID : 11
Format : DTS
Format/Info : Digital Theater Systems
Format profile : MA / Core
Mode : 16
Format settings, Endianness : Big
Codec ID : A_DTS
Duration : 1h 47mn
Bit rate mode : Variable
Bit rate : Unknown / 1 509 Kbps
Channel(s) : 6 channels
Channel positions : Front: L C R, Side: L R, LFE
Sampling rate : 48.0 KHz
Bit depth : 24 bits
Compression mode : Lossless / Lossy
Language : English
Default : No
Forced : No
Audio #11
ID : 12
Format : AC-3
Format/Info : Audio Coding 3
Format profile : Dolby Digital
Mode extension : CM (complete main)
Format settings, Endianness : Big
Codec ID : A_AC3
Duration : 1h 47mn
Bit rate mode : Constant
Bit rate : 192 Kbps
Channel(s) : 2 channels
Channel positions : Front: L R
Sampling rate : 48.0 KHz
Bit depth : 16 bits
Compression mode : Lossy
Stream size : 147 MiB (1%)
Title : Proper Commentary
Language : English
Default : No
Forced : No
Audio #12
ID : 13
Format : AC-3
Format/Info : Audio Coding 3
Format profile : Dolby Digital
Mode extension : CM (complete main)
Format settings, Endianness : Big
Codec ID : A_AC3
Duration : 1h 47mn
Bit rate mode : Constant
Bit rate : 192 Kbps
Channel(s) : 2 channels
Channel positions : Front: L R
Sampling rate : 48.0 KHz
Bit depth : 16 bits
Compression mode : Lossy
Stream size : 147 MiB (1%)
Title : Stupid Commentary
Language : English
Default : No
Forced : No
Text #1
ID : 14
Format : UTF-8
Codec ID : S_TEXT/UTF8
Codec ID/Info : UTF-8 Plain Text
Title : Neoclassica
Language : Russian
Default : No
Forced : No
Text #2
ID : 15
Format : UTF-8
Codec ID : S_TEXT/UTF8
Codec ID/Info : UTF-8 Plain Text
Title : Universal Pictures
Language : Russian
Default : No
Forced : No
Text #3
ID : 16
Format : UTF-8
Codec ID : S_TEXT/UTF8
Codec ID/Info : UTF-8 Plain Text
Title : Вадим Филиппов
Language : Russian
Default : No
Forced : No
Text #4
ID : 17
Format : UTF-8
Codec ID : S_TEXT/UTF8
Codec ID/Info : UTF-8 Plain Text
Language : English
Default : No
Forced : No
Text #5
ID : 18
Format : UTF-8
Codec ID : S_TEXT/UTF8
Codec ID/Info : UTF-8 Plain Text
Title : Proper Commentary
Language : English
Default : No
Forced : No
Text #6
ID : 19
Format : UTF-8
Codec ID : S_TEXT/UTF8
Codec ID/Info : UTF-8 Plain Text
Title : Stupid Commentary
Language : English
Default : No
Forced : No
Menu
00:00:00.000 : en:The Meaning of Life
00:16:31.615 : en:Birth
00:20:17.215 : en:Birth In the Third World
00:24:46.943 : en:The Protestant View
00:31:50.199 : en:Religious Education
00:34:19.432 : en:Sed Education
00:37:16.275 : en:Physical Education
00:43:44.830 : en:Fighting Each Other
00:45:04.993 : en:Military Education
00:48:53.096 : en:Officers & Gentlemen
00:51:40.931 : en:A Tiger
00:57:39.581 : en:Find the Truth
01:01:22.553 : en:Philosophy a La Carte
01:03:45.112 : en:The Liver Donor
01:08:36.278 : en:The Galaxy
01:11:13.352 : en:The Very Big Corporation of America
01:15:16.303 : en:Mr Creosote: The Joy of Fat
01:17:44.534 : en:The Meaning of It All
01:24:37.572 : en:The Good Death Guide
01:29:40.291 : en:Autumn Leaves
01:31:39.827 : en:The Grim Reaper
01:32:41.556 : en:Stairway to Heaven
01:39:53.612 : en:Christmas In Heaven
01:41:16.528 : en:The End of the Film
01:43:34.666 : en:End Credits

Скриншоты

BluRay @ 27996 kbps vs HDDVD @ ~20 Mbps






Показать сообщения:    

Текущее время: 05-Дек 23:40

Часовой пояс: UTC + 3


Вы не можете начинать темы
Вы не можете отвечать на сообщения
Вы не можете редактировать свои сообщения
Вы не можете удалять свои сообщения
Вы не можете голосовать в опросах
Вы не можете прикреплять файлы к сообщениям
Вы не можете скачивать файлы