Стена / Die Wand / The Wall (Юлиан Пельслер / Julian Pölsler) [2012, Австрия, Германия, фэнтези, драма, арт-хаус, BDRemux 1080p] AVO (А. Дольский) + VO (ХиХиДок) + Sub Rus, Eng + Original Ger


 

[Цитировать]

Стена / Die Wand / The Wall
Страна: Австрия, Германия
Жанр: фэнтези, драма, арт-хаус
Год выпуска: 2012
Продолжительность: 01:47:55
Перевод: Авторский (одноголосый закадровый) А. Дольский
Перевод 2: Одноголосый закадровый ХиХиДок
Cубтитры: русские, английские
Оригинальная аудиодорожка: немецкий
Режиссер: Юлиан Пельслер / Julian Pölsler
В ролях: Мартина Гедек, Карлхайнц Хакль, Ulrike Beimpold, Julia Gschnitzer, Ганс-Михаэль Реберг, Вольфганг М. Бауэр
Описание: В доме, затерянном в горах, женщина с грубо остриженными волосами, синевой вокруг глаз и скулами, обострившимися от месяцев скудной жизни и тяжелого физического труда, ведёт дневник — на оборотной стороне истлевших, потерявших смысл календарей, под надсадное карканье ноябрьских ворон. Не ради удовольствия от письма — чтобы выжить и спастись от безумия.
С ней случилось невероятное — она приехала в этот горный дом с друзьями, пожилой парой, в солнечный майский день, чтобы на следующее утро, обеспокоившись исчезновением ушедших на прогулку стариков, обнаружить, что покинуть вершину горы уже невозможно: весь прочий мир отделен от неё невидимой, но непроницаемой стеной.
Так женщина осталась одна, в компании домашнего пса, приблудной коровы и пушистых котят, таких неуместных на лоне дикой природы. Она осознала, что недостаточно юна и безрассудна для самоубийства, значит, придётся выживать, чего бы это ни стоило…
IMDB
Кинопоиск
Вики
Сэмпл
Тип релиза: BDRemux 1080p
Контейнер: MKV
Видео: MPEG-4 AVC, 1920x1080, 16:9, 23.976 fps, ~33.0 Mbps
Аудио: Русский, AC3, 48 kHz, 6 ch, Front: L C R, Side: L R, LFE, 448 kbps (А. Дольский)
Аудио 2: Русский, AC3, 48 kHz, 6 ch, Front: L C R, Side: L R, LFE, 640 kbps (ХиХиДок)
Аудио 3: German, DTS, 48 kHz, 6 ch, Front: L C R, Side: L R, LFE, 1 509 kbps
Cубтитры: русские (SRT), немецкие (SRT, PGS), английские (SRT)
Формат субтитров: softsub (SRT), PGS
Навигация по главам: есть (главы не именованы)

MediaInfo

General
Complete name : Die_Wand_2012.mkv
Format : Matroska
Format version : Version 2
File size : 19.2 GiB
Duration : 1h 47mn
Overall bit rate mode : Variable
Overall bit rate : 25.4 Mbps
Movie name : Die Wand
Encoded date : UTC 2015-02-12 19:58:55
Writing application : mkvmerge v6.6.0 ('The Edge Of The In Between') built on Dec 1 2013 17:55:00
Writing library : libebml v1.3.0 + libmatroska v1.4.1
Attachements : poster.jpg
Video
ID : 1
Format : AVC
Format/Info : Advanced Video Codec
Format profile : High@L4.1
Format settings, CABAC : Yes
Format settings, ReFrames : 4 frames
Format settings, GOP : M=3, N=24
Codec ID : V_MPEG4/ISO/AVC
Duration : 1h 47mn
Bit rate mode : Variable
Bit rate : 22.3 Mbps
Maximum bit rate : 33.0 Mbps
Width : 1 920 pixels
Height : 1 080 pixels
Display aspect ratio : 16:9
Frame rate mode : Constant
Frame rate : 23.976 fps
Standard : NTSC
Color space : YUV
Chroma subsampling : 4:2:0
Bit depth : 8 bits
Scan type : Progressive
Bits/(Pixel*Frame) : 0.449
Stream size : 16.8 GiB (88%)
Language : English
Default : No
Forced : No
Color primaries : BT.709
Transfer characteristics : BT.709
Matrix coefficients : BT.709
Color range : Limited
Audio #1
ID : 2
Format : AC-3
Format/Info : Audio Coding 3
Mode extension : CM (complete main)
Format settings, Endianness : Big
Codec ID : A_AC3
Duration : 1h 47mn
Bit rate mode : Constant
Bit rate : 448 Kbps
Channel(s) : 6 channels
Channel positions : Front: L C R, Side: L R, LFE
Sampling rate : 48.0 KHz
Bit depth : 16 bits
Compression mode : Lossy
Stream size : 346 MiB (2%)
Title : А.Дольский
Language : Russian
Default : Yes
Forced : No
Audio #2
ID : 3
Format : AC-3
Format/Info : Audio Coding 3
Mode extension : CM (complete main)
Format settings, Endianness : Big
Codec ID : A_AC3
Duration : 1h 47mn
Bit rate mode : Constant
Bit rate : 640 Kbps
Channel(s) : 6 channels
Channel positions : Front: L C R, Side: L R, LFE
Sampling rate : 48.0 KHz
Bit depth : 16 bits
Compression mode : Lossy
Stream size : 494 MiB (3%)
Title : ХиХиДок
Language : Russian
Default : No
Forced : No
Audio #3
ID : 4
Format : DTS
Format/Info : Digital Theater Systems
Mode : 16
Format settings, Endianness : Big
Codec ID : A_DTS
Duration : 1h 47mn
Bit rate mode : Constant
Bit rate : 1 509 Kbps
Channel(s) : 6 channels
Channel positions : Front: L C R, Side: L R, LFE
Sampling rate : 48.0 KHz
Bit depth : 24 bits
Compression mode : Lossy
Stream size : 1.14 GiB (6%)
Language : German
Default : No
Forced : No
Text #1
ID : 5
Format : UTF-8
Codec ID : S_TEXT/UTF8
Codec ID/Info : UTF-8 Plain Text
Title : zukaten
Language : Russian
Default : No
Forced : No
Text #2
ID : 6
Format : UTF-8
Codec ID : S_TEXT/UTF8
Codec ID/Info : UTF-8 Plain Text
Language : German
Default : No
Forced : No
Text #3
ID : 7
Format : PGS
Muxing mode : zlib
Codec ID : S_HDMV/PGS
Codec ID/Info : The same subtitle format used on BDs/HD-DVDs
Language : German
Default : No
Forced : No
Text #4
ID : 8
Format : UTF-8
Codec ID : S_TEXT/UTF8
Codec ID/Info : UTF-8 Plain Text
Language : English
Default : No
Forced : No
Menu
00:00:00.000 : en:Chapter 01
00:04:16.214 : en:Chapter 02
00:15:05.404 : en:Chapter 03
00:25:25.315 : en:Chapter 04
00:34:56.427 : en:Chapter 05
00:43:04.832 : en:Chapter 06
00:51:58.615 : en:Chapter 07
01:01:03.826 : en:Chapter 08
01:10:28.182 : en:Chapter 09
01:18:20.570 : en:Chapter 10
01:27:32.247 : en:Chapter 11
01:36:38.417 : en:Chapter 12



Показать сообщения:    

Текущее время: 20-Янв 14:54

Часовой пояс: UTC + 3


Вы не можете начинать темы
Вы не можете отвечать на сообщения
Вы не можете редактировать свои сообщения
Вы не можете удалять свои сообщения
Вы не можете голосовать в опросах
Вы не можете прикреплять файлы к сообщениям
Вы не можете скачивать файлы