Древо жизни / The Tree of Life (Терренс Малик / Terrence Malick) [2011, США, драма, BDRip 1080p] Dub + AVO (Сербин) + Original Eng + Sub Rus, Ukr, Eng


 

[Цитировать]

Древо жизни / The Tree of Life- Год выпуска: 2011
Выпущено: США
Жанр: драма
Продолжительность: 02:18:54
Перевод: Профессиональный (полное дублирование)
+ Авторский одноголосый Ю.Сербин
Оригинальная звуковая дорожка: English
Субтитры: Russian (R5), Ukrainian (R5), English-Режиссер: Терренс Малик / Terrence Malick
В ролях: Брэд Питт, Шон Пенн, Джессика Честейн, Хантер МакКракен, Ларами Эпплер, Тай Шеридан, Фиона Шоу, Джессика Фусельер, Николас Гонда, Уилл Уоллес
О фильме: Мы наблюдаем за развитием 11-летнего Джека, одного из трех братьев. Поначалу ребенку все кажется чудесным. Глазами своей души он наблюдает за поступками мамы. Она представляет собой любовь и милосердие, в то время как отец пытается научить сына, что в реальном мире на первое место необходимо всегда ставить себя. Каждый родитель старается переманить Джека на свою сторону, и он должен примириться с их притязаниями. Действительность становится мрачнее, когда главному герою в первый раз приходится столкнуться с болью, страданиями и смертью. Некогда абсолютно ясный мир превращается в лабиринт.-DON!
Релиз:
Формат: MKV
Видео: 1920x1040 at 23.976 fps, x264@L4.1, 2pass, ~23200 kbps avg
Аудио #01: Russian: 48 kHz, DTS, 3/2 (L,C,R,l,r) + LFE ch, ~1510 kbps avg |Дубляж|
Аудио #02: Russian: 48 kHz, DTS, 3/2 (L,C,R,l,r) + LFE ch, ~1510 kbps avg |Одноголосый закадровый, Юрий Сербин|
Аудио #03: English: 48 kHz, DTS, 3/2 (L,C,R,l,r) + LFE ch, ~1510 kbps avg
Семпл-

Source vs Encode






-

mInfo

Полное имя : G:\The.Tree.of.Life.2011.1080p.BluRay.2xRus.Eng.HDCLUB.mkv
Формат : Matroska
Версия формата : Version 2
Размер файла : 27,0 Гбайт
Продолжительность : 2 ч. 18 м.
Общий поток : 27,9 Мбит/сек
Название фильма : The Tree of Life (2011) - Release for HDCLUB
Дата кодирования : UTC 2013-12-27 11:08:13
Программа кодирования : mkvmerge v5.7.0 ('The Whirlwind') built on Jul 8 2012 20:08:51
Библиотека кодирования : libebml v1.2.3 + libmatroska v1.3.0
Видео
Идентификатор : 1
Формат : AVC
Формат/Информация : Advanced Video Codec
Профиль формата : High@L4.1
Параметр CABAC формата : Да
Параметр ReFrames формата : 4 кадра
Режим смешивания : Container profile=Unknown@0.0
Идентификатор кодека : V_MPEG4/ISO/AVC
Продолжительность : 2 ч. 18 м.
Битрейт : 23,2 Мбит/сек
Ширина : 1920 пикселей
Высота : 1040 пикселей
Соотношение сторон : 1,85:1
Режим частоты кадров : Постоянный
Частота кадров : 23,976 кадра/сек
Цветовое пространство : YUV
Субдискретизация насыщенности : 4:2:0
Битовая глубина : 8 бит
Тип развёртки : Прогрессивная
Бит/(Пиксели*Кадры) : 0.485
Размер потока : 22,1 Гбайт (82%)
Библиотека кодирования : x264 core 118 r2085kMod 8a62835
Настройки программы : cabac=1 / ref=4 / deblock=1:-3:-3 / analyse=0x3:0x133 / me=tesa / subme=10 / psy=1 / fade_compensate=0.60 / psy_rd=1.00:0.15 / mixed_ref=1 / me_range=24 / chroma_me=1 / trellis=2 / 8x8dct=1 / cqm=0 / deadzone=21,11 / fast_pskip=0 / chroma_qp_offset=-3 / threads=6 / sliced_threads=0 / nr=0 / decimate=1 / interlaced=0 / bluray_compat=0 / constrained_intra=0 / bframes=8 / b_pyramid=2 / b_adapt=2 / b_bias=0 / direct=3 / weightb=1 / open_gop=0 / weightp=2 / keyint=250 / keyint_min=23 / scenecut=40 / intra_refresh=0 / rc_lookahead=100 / rc=2pass / mbtree=1 / bitrate=23227 / ratetol=1.0 / qcomp=0.65 / qpmin=0 / qpmax=69 / qpstep=4 / cplxblur=20.0 / qblur=0.5 / vbv_maxrate=50000 / vbv_bufsize=62500 / nal_hrd=none / ip_ratio=1.40 / aq=3:0.75 / zones=1,620,b=1.3/29387,29531,b=3.4/31571,32023,b=3.5/33119,33639,b=3.5/35036,35512,b=2.5/40017,40158,b=3.5
Язык : English
Default : Да
Forced : Нет
Аудио #1
Идентификатор : 2
Формат : DTS
Формат/Информация : Digital Theater Systems
Режим : 16
Параметр Endianness формата : Big
Идентификатор кодека : A_DTS
Продолжительность : 2 ч. 18 м.
Вид битрейта : Постоянный
Битрейт : 1509 Кбит/сек
Каналы : 6 каналов
Расположение каналов : Front: L C R, Side: L R, LFE
Частота : 48,0 КГц
Битовая глубина : 16 бит
Метод сжатия : С потерями
Размер потока : 1,46 Гбайт (5%)
Заголовок : |Дубляж|
Язык : Russian
Default : Да
Forced : Нет
Аудио #2
Идентификатор : 3
Формат : DTS
Формат/Информация : Digital Theater Systems
Режим : 16
Параметр Endianness формата : Big
Идентификатор кодека : A_DTS
Продолжительность : 2 ч. 18 м.
Вид битрейта : Постоянный
Битрейт : 1509 Кбит/сек
Каналы : 6 каналов
Расположение каналов : Front: L C R, Side: L R, LFE
Частота : 48,0 КГц
Битовая глубина : 24 бит
Метод сжатия : С потерями
Размер потока : 1,46 Гбайт (5%)
Заголовок : |Одноголосый закадровый, Ю.Сербин|
Язык : Russian
Default : Нет
Forced : Нет
Аудио #3
Идентификатор : 4
Формат : DTS
Формат/Информация : Digital Theater Systems
Режим : 16
Параметр Endianness формата : Big
Идентификатор кодека : A_DTS
Продолжительность : 2 ч. 18 м.
Вид битрейта : Постоянный
Битрейт : 1509 Кбит/сек
Каналы : 6 каналов
Расположение каналов : Front: L C R, Side: L R, LFE
Частота : 48,0 КГц
Битовая глубина : 24 бит
Метод сжатия : С потерями
Размер потока : 1,46 Гбайт (5%)
Заголовок : English DTS 5.1
Язык : English
Default : Нет
Forced : Нет
Текст #1
Идентификатор : 5
Формат : UTF-8
Идентификатор кодека : S_TEXT/UTF8
Идентификатор кодека/Информация : UTF-8 Plain Text
Язык : Russian
Default : Нет
Forced : Нет
Текст #2
Идентификатор : 6
Формат : UTF-8
Идентификатор кодека : S_TEXT/UTF8
Идентификатор кодека/Информация : UTF-8 Plain Text
Язык : Ukrainian
Default : Нет
Forced : Нет
Текст #3
Идентификатор : 7
Формат : UTF-8
Идентификатор кодека : S_TEXT/UTF8
Идентификатор кодека/Информация : UTF-8 Plain Text
Заголовок : English
Язык : English
Default : Нет
Forced : Нет
Текст #4
Идентификатор : 8
Формат : UTF-8
Идентификатор кодека : S_TEXT/UTF8
Идентификатор кодека/Информация : UTF-8 Plain Text
Заголовок : English SDH
Язык : English
Default : Нет
Forced : Нет
Текст #5
Идентификатор : 9
Формат : UTF-8
Идентификатор кодека : S_TEXT/UTF8
Идентификатор кодека/Информация : UTF-8 Plain Text
Заголовок : Spanish - Latin
Язык : Spanish
Default : Нет
Forced : Нет
Меню
00:00:00.000 : :00:00:00.000
00:04:10.333 : :00:04:10.333
00:11:13.339 : :00:11:13.339
00:19:39.970 : :00:19:39.970
00:36:58.424 : :00:36:58.424
00:48:38.457 : :00:48:38.457
00:55:26.740 : :00:55:26.740
00:58:50.318 : :00:58:50.318
01:09:28.372 : :01:09:28.372
01:10:52.873 : :01:10:52.873
01:15:49.712 : :01:15:49.712
01:19:50.577 : :01:19:50.577
01:25:00.512 : :01:25:00.512
01:26:32.103 : :01:26:32.103
01:30:31.426 : :01:30:31.426
01:37:15.162 : :01:37:15.162
01:39:43.602 : :01:39:43.602
01:41:35.881 : :01:41:35.881
01:47:08.505 : :01:47:08.505
01:53:58.039 : :01:53:58.039
01:58:13.211 : :01:58:13.211
02:00:45.112 : :02:00:45.112
02:11:49.902 : :02:11:49.902
02:13:04.643 : :02:13:04.643
-



Показать сообщения:    

Текущее время: 11-Дек 05:20

Часовой пояс: UTC + 3


Вы не можете начинать темы
Вы не можете отвечать на сообщения
Вы не можете редактировать свои сообщения
Вы не можете удалять свои сообщения
Вы не можете голосовать в опросах
Вы не можете прикреплять файлы к сообщениям
Вы не можете скачивать файлы