Одержимость / Whiplash (Дэмьен Шазелл / Damien Chazelle) [2014, США, музыка, драма, BDRip 720p] MVO (iTunes) + VO (А.Матвеев) + Sub Rus, Eng + Original Eng


 

[Цитировать]

Одержимость / Whiplash
Страна: США
Жанр: музыка, драма
Год выпуска: 2014
Продолжительность: 01:46:28
Перевод: Профессиональный (многоголосый закадровый) iTunes
Перевод 2: Одноголосый закадровый А.Матвеев
Cубтитры: Rus, Eng
Оригинальная аудиодорожка: английский
Режиссер: Дэмьен Шазелл / Damien Chazelle
В ролях: Майлз Теллер, Дж.К. Симмонс, Пол Райзер, Мелисса Беноист, Остин Стоуэлл, Нат Лэнг, Крис Малки, Дэймон Гаптон, Макс Кэш, Сюанн Споук
Описание: Эндрю мечтает стать великим. Казалось бы, вот-вот его мечта осуществится. Юношу замечает настоящий гений, дирижер лучшего в стране оркестра. Желание Эндрю добиться успеха быстро становится одержимостью, а безжалостный наставник продолжает подталкивать его все дальше и дальше — за пределы человеческих возможностей. Кто выйдет победителем из этой схватки?
Перевод Алексея Матвеева доступен благодаря: будулайроманов. Перевод: MartinaG. Работа со звуком: Переводман. Содержит ненормативную лексику.

Тип релиза: BDRip 720p
Контейнер: MKV
Видео: MPEG-4 AVC, 8150 Кбит/с, 1280x534, 23,976 fps
Аудио: Rus, AC3, 640 kb/s (6 ch), 48 kHz - MVO iTunes Russia
Аудио 2: Rus, DTS, 1510 kb/s (6 ch), 48 kHz - А.Матвеев
Аудио 3: Eng, DTS, 1510 kb/s (6 ch), 48 kHz
Формат субтитров: softsub (SRT)

MediaInfo

x264 info: frame I:1340 Avg QP:11.54 size:118826
x264 info: frame P:33720 Avg QP:12.92 size: 62815
x264 info: frame B:118516 Avg QP:13.47 size: 37205
x264 info: consecutive B-frames: 2.9% 3.1% 7.6% 20.6% 16.1% 26.9% 8.5% 12.1% 2.2%
Format : Matroska
Format version : Version 4 / Version 2
File size : 8.96 GiB
Duration : 1h 46mn
Overall bit rate : 12.0 Mbps
Movie name : Tonik
Encoded date : UTC 2015-02-08 15:59:05
Writing application : mkvmerge v7.1.0 ('Good Love') 64bit built on Jul 27 2014 13:06:55
Writing library : libebml v1.3.0 + libmatroska v1.4.1
_STATISTICS_WRITING_APP : mkvmerge v7.1.0 ('Good Love') 64bit built on Jul 27 2014 13:06:55
_STATISTICS_WRITING_DATE_UTC : 2015-02-08 15:59:05
_STATISTICS_TAGS : BPS DURATION NUMBER_OF_FRAMES NUMBER_OF_BYTES
DURATION : 01:46:45.408000000
NUMBER_OF_FRAMES : 600507
NUMBER_OF_BYTES : 1208220820
Video
ID : 1
Format : AVC
Format/Info : Advanced Video Codec
Format profile : High@L4.1
Format settings, CABAC : Yes
Format settings, ReFrames : 12 frames
Codec ID : V_MPEG4/ISO/AVC
Duration : 1h 46mn
Bit rate : 8 116 Kbps
Width : 1 280 pixels
Height : 534 pixels
Display aspect ratio : 2.40:1
Frame rate mode : Constant
Frame rate : 23.976 fps
Color space : YUV
Chroma subsampling : 4:2:0
Bit depth : 8 bits
Scan type : Progressive
Bits/(Pixel*Frame) : 0.495
Stream size : 6.05 GiB (68%)
Writing library : x264 core 142 r2431+42 c69a006 tMod [8-bit@all X86_64]
Encoding settings : cabac=1 / ref=12 / deblock=1:-3:-3 / analyse=0x3:0x133 / me=umh / subme=10 / psy=1 / fade_compensate=0.00 / psy_rd=1.05:0.00 / mixed_ref=1 / me_range=24 / chroma_me=1 / trellis=2 / 8x8dct=1 / cqm=0 / deadzone=21,11 / fast_pskip=0 / chroma_qp_offset=-2 / threads=24 / lookahead_threads=4 / sliced_threads=0 / nr=0 / decimate=0 / interlaced=0 / bluray_compat=0 / constrained_intra=0 / fgo=0 / bframes=8 / b_pyramid=2 / b_adapt=2 / b_bias=0 / direct=3 / weightb=1 / open_gop=0 / weightp=2 / keyint=250 / keyint_min=23 / scenecut=40 / intra_refresh=0 / rc=crf / mbtree=0 / crf=15.5000 / qcomp=0.75 / qpmin=0:0:0 / qpmax=69:69:69 / qpstep=4 / ip_ratio=1.20 / pb_ratio=1.10 / aq=3:0.75 / aq-sensitivity=10.00 / aq-factor=1.00:1.00:1.00 / aq2=0 / aq3=0
Language : English
Default : Yes
Forced : No
_STATISTICS_WRITING_APP : mkvmerge v7.1.0 ('Good Love') 64bit built on Jul 27 2014 13:06:55
_STATISTICS_WRITING_DATE_UTC : 2015-02-08 15:59:05
_STATISTICS_TAGS : BPS DURATION NUMBER_OF_FRAMES NUMBER_OF_BYTES
DURATION : 01:46:45.399000000
NUMBER_OF_FRAMES : 153576
NUMBER_OF_BYTES : 6686732631
Audio #1
ID : 2
Format : AC-3
Format/Info : Audio Coding 3
Mode extension : CM (complete main)
Format settings, Endianness : Big
Codec ID : A_AC3
Duration : 1h 46mn
Bit rate mode : Constant
Bit rate : 640 Kbps
Channel(s) : 6 channels
Channel positions : Front: L C R, Side: L R, LFE
Sampling rate : 48.0 KHz
Bit depth : 16 bits
Compression mode : Lossy
Stream size : 489 MiB (5%)
Title : iTunes
Language : Russian
Default : Yes
Forced : No
Audio #2
ID : 3
Format : DTS
Format/Info : Digital Theater Systems
Mode : 16
Format settings, Endianness : Big
Codec ID : A_DTS
Duration : 1h 46mn
Bit rate mode : Constant
Bit rate : 1 509 Kbps
Channel(s) : 6 channels
Channel positions : Front: L C R, Side: L R, LFE
Sampling rate : 48.0 KHz
Bit depth : 16 bits
Compression mode : Lossy
Stream size : 1.13 GiB (13%)
Title : Матвеев
Language : Russian
Default : No
Forced : No
Audio #3
ID : 4
Format : DTS
Format/Info : Digital Theater Systems
Mode : 16
Format settings, Endianness : Big
Codec ID : A_DTS
Duration : 1h 46mn
Bit rate mode : Constant
Bit rate : 1 509 Kbps
Channel(s) : 6 channels
Channel positions : Front: L C R, Side: L R, LFE
Sampling rate : 48.0 KHz
Bit depth : 16 bits
Compression mode : Lossy
Stream size : 1.13 GiB (13%)
Language : English
Default : No
Forced : No
Text #1
ID : 5
Format : UTF-8
Codec ID : S_TEXT/UTF8
Codec ID/Info : UTF-8 Plain Text
Language : Russian
Default : No
Forced : No
Text #2
ID : 6
Format : UTF-8
Codec ID : S_TEXT/UTF8
Codec ID/Info : UTF-8 Plain Text
Language : English
Default : No
Forced : No
Text #3
ID : 7
Format : UTF-8
Codec ID : S_TEXT/UTF8
Codec ID/Info : UTF-8 Plain Text
Title : SDH
Language : English
Default : No
Forced : No
Menu
00:00:00.000 : en:00:00:00.000
00:06:51.828 : en:00:06:51.828
00:14:34.457 : en:00:14:34.457
00:24:26.382 : en:00:24:26.382
00:30:06.096 : en:00:30:06.096
00:35:43.975 : en:00:35:43.975
00:43:31.359 : en:00:43:31.359
00:46:55.312 : en:00:46:55.312
00:53:12.481 : en:00:53:12.481
01:02:37.504 : en:01:02:37.504
01:10:30.560 : en:01:10:30.560
01:14:03.606 : en:01:14:03.606
01:17:48.789 : en:01:17:48.789
01:23:06.106 : en:01:23:06.106
01:25:28.290 : en:01:25:28.290
01:31:56.219 : en:01:31:56.219

Скриншоты

Перекачайте торрент файл, замена файла.



Показать сообщения:    

Текущее время: 11-Дек 07:11

Часовой пояс: UTC + 3


Вы не можете начинать темы
Вы не можете отвечать на сообщения
Вы не можете редактировать свои сообщения
Вы не можете удалять свои сообщения
Вы не можете голосовать в опросах
Вы не можете прикреплять файлы к сообщениям
Вы не можете скачивать файлы