Сатирикон Феллини / Fellini - Satyricon (Федерико Феллини / Federico Fellini) [1969, Италия, драма, BDRemux 1080p] [Criterion Collection] 2x MVO + DVO + Sub (Rus, Eng) + Original Ita


 

[Цитировать]

Сатирикон Феллини / Fellini - Satyricon
Страна: Италия
Жанр: драма
Год выпуска: 1969
Продолжительность: 02:09:43
Перевод: Профессиональный (многоголосый закадровый) ВидеоИмпульс
Перевод: Профессиональный (многоголосый закадровый) SomeWax
Перевод: Профессиональный (двухголосый закадровый) НТВ+
Cубтитры: русские, английские
Оригинальная аудиодорожка: итальянский-Режиссер: Федерико Феллини / Federico Fellini
В ролях: Мартин Поттер, Хирам Келлер, Макс Борн, Сальво Рандоне, Марио Романьоли, Лючия Бозе, Магали Ноэль, Капучине, Ален Кюни, Гордон Митчелл, Джордж Истмэн, Даника Ла Лоджиа, Джозеф Велер, Таня Лопер, Марчелло Ди Фалько, Элиза Майнарди, Фанфулла, Джениус, Паола Тедеско, Тито ЛеДюк
Описание: По мотивам одноименного романа Петрония Арбитра.
Действие происходит во всех удаленных уголках Римской империи. Следуя фрагментарному построению романа, фильм состоит из 25 эпизодов, слабо связанных между собой присутствием молодого и циничного Энколпио. Подобно Одиссею, Энколпио постоянно попадает в разнообразные приключения, которые грозят ему гибелью и неудачами, но ему всегда удается выбраться из них...
IMDb || КиноПоиск-Тип релиза: BDRemux 1080p [Fellini - Satyricon 1969 1080p Blu-ray AVC LPCM 1.0-LAZERS]
Контейнер: MKV
Видео: MPEG-4 AVC Video, 1920x1080 at 23.976 fps, 25891 kbps
Аудио#1: Russian: 48 kHz, AC3, 2.0 ch, 192 kbps
Аудио#2: Russian: 48 kHz, AC3, 2.0 ch, 192 kbps
Аудио#3: Russian: 48 kHz, AC3, 2.0 ch, 192 kbps
Аудио#4: Italian: 48 kHz, FLAC, 1.0 ch, 567 kbps
Аудио#5: English: 48 kHz, AC3, 1.0 ch, 192 kbps |Commentary
Формат субтитров: softsub (SRT)
Сэмпл

Дополнительно

На отсутствующий фрагмент в дорожке SomeWax кусочек ВидеоИмпульса.
За дорожку ВидеоИмпульс спасибо Nail Lowe, за НТВ+ - lizing48.

MediaInfo

General
Unique ID : 176843079848815756462692213480109540188 (0x850ABD00D36366F4BD8AE38774A2835C)
Complete name : I:\Сатирикон\Fellini.Satyricon.1969.Criterion.BDRemux. rutracker.mkv
Format : Matroska
Format version : Version 2
File size : 24.7 GiB
Duration : 2h 9mn
Overall bit rate mode : Variable
Overall bit rate : 27.2 Mbps
Movie name : Release for RuTracker
Writing application : mkvmerge v5.0.1 ('Es ist Sommer') built on Nov 6 2011 16:23:40
Writing library : libebml v1.2.2 + libmatroska v1.3.0
Video
ID : 1
Format : AVC
Format/Info : Advanced Video Codec
Format profile : High@L4.1
Format settings, CABAC : Yes
Format settings, ReFrames : 4 frames
Codec ID : V_MPEG4/ISO/AVC
Duration : 2h 9mn
Bit rate mode : Variable
Maximum bit rate : 37.0 Mbps
Width : 1 920 pixels
Height : 1 080 pixels
Display aspect ratio : 16:9
Frame rate mode : Constant
Frame rate : 23.976 fps
Color space : YUV
Chroma subsampling : 4:2:0
Bit depth : 8 bits
Scan type : Progressive
Title : Fellini.Satyricon.1969.Criterion.BDRemux. rutracker
Language : Italian
Default : Yes
Forced : No
Audio #1
ID : 2
Format : AC-3
Format/Info : Audio Coding 3
Mode extension : CM (complete main)
Format settings, Endianness : Big
Codec ID : A_AC3
Duration : 2h 9mn
Bit rate mode : Constant
Bit rate : 192 Kbps
Channel(s) : 2 channels
Channel positions : Front: L R
Sampling rate : 48.0 KHz
Bit depth : 16 bits
Compression mode : Lossy
Stream size : 178 MiB (1%)
Title : ВидеоИмпульс
Language : Russian
Default : Yes
Forced : No
Audio #2
ID : 3
Format : AC-3
Format/Info : Audio Coding 3
Mode extension : CM (complete main)
Format settings, Endianness : Big
Codec ID : A_AC3
Duration : 2h 9mn
Bit rate mode : Constant
Bit rate : 192 Kbps
Channel(s) : 2 channels
Channel positions : Front: L R
Sampling rate : 48.0 KHz
Bit depth : 16 bits
Compression mode : Lossy
Stream size : 178 MiB (1%)
Title : SomeWax
Language : Russian
Default : No
Forced : No
Audio #3
ID : 4
Format : AC-3
Format/Info : Audio Coding 3
Mode extension : CM (complete main)
Format settings, Endianness : Big
Codec ID : A_AC3
Duration : 2h 9mn
Bit rate mode : Constant
Bit rate : 192 Kbps
Channel(s) : 2 channels
Channel positions : Front: L R
Sampling rate : 48.0 KHz
Bit depth : 16 bits
Compression mode : Lossy
Stream size : 178 MiB (1%)
Title : НТВ+
Language : Russian
Default : No
Forced : No
Audio #4
ID : 5
Format : FLAC
Format/Info : Free Lossless Audio Codec
Codec ID : A_FLAC
Duration : 2h 9mn
Bit rate mode : Variable
Channel(s) : 1 channel
Sampling rate : 48.0 KHz
Bit depth : 24 bits
Writing library : libFLAC 20080709 (UTC 2008-07-09)
Language : Italian
Default : No
Forced : No
Audio #5
ID : 6
Format : AC-3
Format/Info : Audio Coding 3
Mode extension : CM (complete main)
Format settings, Endianness : Big
Codec ID : A_AC3
Duration : 2h 9mn
Bit rate mode : Constant
Bit rate : 192 Kbps
Channel(s) : 1 channel
Channel positions : Front: C
Sampling rate : 48.0 KHz
Bit depth : 16 bits
Compression mode : Lossy
Stream size : 178 MiB (1%)
Title : commentary
Language : English
Default : No
Forced : No
Text #1
ID : 7
Format : UTF-8
Codec ID : S_TEXT/UTF8
Codec ID/Info : UTF-8 Plain Text
Title : ThePooh & Co.
Language : Russian
Default : No
Forced : No
Text #2
ID : 8
Format : UTF-8
Codec ID : S_TEXT/UTF8
Codec ID/Info : UTF-8 Plain Text
Language : English
Default : No
Forced : No
Menu
00:00:00.000 : en:00:00:00.000
00:03:17.572 : en:00:03:17.572
00:05:06.514 : en:00:05:06.514
00:11:16.300 : en:00:11:16.300
00:13:37.024 : en:00:13:37.024
00:21:58.191 : en:00:21:58.191
00:23:46.758 : en:00:23:46.758
00:42:32.841 : en:00:42:32.841
00:45:39.987 : en:00:45:39.987
00:49:38.767 : en:00:49:38.767
00:51:21.161 : en:00:51:21.161
00:59:21.933 : en:00:59:21.933
01:04:28.364 : en:01:04:28.364
01:08:01.577 : en:01:08:01.577
01:15:41.119 : en:01:15:41.119
01:21:51.281 : en:01:21:51.281
01:25:42.095 : en:01:25:42.095
01:34:24.867 : en:01:34:24.867
01:41:14.026 : en:01:41:14.026
01:45:06.091 : en:01:45:06.091
01:53:04.486 : en:01:53:04.486
01:55:51.611 : en:01:55:51.611
02:00:59.669 : en:02:00:59.669
02:06:33.252 : en:02:06:33.252
02:07:50.412 : en:02:07:50.412



Показать сообщения:    

Текущее время: 09-Дек 10:51

Часовой пояс: UTC + 3


Вы не можете начинать темы
Вы не можете отвечать на сообщения
Вы не можете редактировать свои сообщения
Вы не можете удалять свои сообщения
Вы не можете голосовать в опросах
Вы не можете прикреплять файлы к сообщениям
Вы не можете скачивать файлы