Пурпурная роза Каира / The Purple Rose of Cairo (Вуди Аллен / Woody Allen) [1985, США, мелодрама, комедия, BDRemux 1080p] 2х DVO + AVO + Sub Eng + Original Eng


 

[Цитировать]

Пурпурная роза Каира / The Purple Rose of Cairo
Страна: США
Студия: Orion Pictures Corporation
Жанр: мелодрама, комедия
Год выпуска: 1985
Продолжительность: 01:22:06
Перевод: Профессиональный (двухголосый закадровый)
Перевод 2: Профессиональный (двухголосый закадровый) Культура
Перевод 3: Авторский (одноголосый закадровый) А. Михалев
Cубтитры: английские
Оригинальная аудиодорожка: английский
Режиссер: Вуди Аллен / Woody Allen
В ролях: Миа Фэрроу, Джефф Дэниэлс, Дэнни Айелло, Стефани Фэрроу, Дайэнн Уист, Эдвард Херрманн, Дебора Раш, Джон Вуд, Ван Джонсон, Юджин Энтони, Энни Джо Эдвардс
Описание: Действие фильма происходит в 1930-е годы, в США - великая депрессия. Официантка дешёвой нью-йоркской закусочной Сесилия страдает от безденежья и неудачного брака с нелюбимым мужем Монком. Пытаясь убежать от жестокой реальности, она отдаётся своей страсти - кинематографу. Раз за разом она пересматривает любимый фильм "Пурпурная роза Каира" в кинотеатре по соседству. Однажды случается чудо: её кумир Том Бакстер, "Мистер Совершенство", сходит с чёрно-белого экрана в зрительный зал к обезумевшей от счастья Сесилии и признаётся ей в любви. В кинотеатре тут же начинается паника, а киногерою приходится столкнуться с "прелестями" реального мира...
Sample
Тип релиза: BDRemux 1080p
Контейнер: MKV
Видео: MPEG4 AVC Video, H264, 1920x1080, 23,976 fps, 29999 Kbps
Аудио: Russian (AC3, 2 ch, 192 kbps, 16 bits, 48.0 KHz) - DVO
Аудио 2: Russian (AC3, 2 ch, 192 kbps, 16 bits, 48.0 KHz) - DVO Культура
Аудио 3: Russian (AC3, 2 ch, 192 kbps, 16 bits, 48.0 KHz) - AVO Михалев
Аудио 4: English (DTS-HD MA, 1 ch, 1068 kbps, 24 bits, 48.0 KHz / DTS core: 1 ch, 768 kbps, 24 bits, 48.0 KHz) - оригинал
Формат субтитров: softsub (SRT)

MediaInfo

General
Unique ID : 226281075297803114917924248729757284833 (0xAA3C265E4D0A8F4E92640CBA4CBDF9E1)
Complete name : L:\The Purple Rose of Cairo 1985 BDRemux 1080p.mkv
Format : Matroska
Format version : Version 4 / Version 2
File size : 18.1 GiB
Duration : 1h 22mn
Overall bit rate mode : Variable
Overall bit rate : 31.6 Mbps
Encoded date : UTC 2015-01-30 01:42:18
Writing application : mkvmerge v6.1.0 ('Old Devil') built on Mar 2 2013 14:32:37
Writing library : libebml v1.3.0 + libmatroska v1.4.0
Video
ID : 1
Format : AVC
Format/Info : Advanced Video Codec
Format profile : High@L4.1
Format settings, CABAC : Yes
Format settings, ReFrames : 4 frames
Codec ID : V_MPEG4/ISO/AVC
Duration : 1h 22mn
Bit rate mode : Variable
Maximum bit rate : 35.0 Mbps
Width : 1 920 pixels
Height : 1 080 pixels
Display aspect ratio : 16:9
Frame rate mode : Constant
Frame rate : 23.976 fps
Standard : NTSC
Color space : YUV
Chroma subsampling : 4:2:0
Bit depth : 8 bits
Scan type : Progressive
Language : English
Default : Yes
Forced : No
Color primaries : BT.709
Transfer characteristics : BT.709
Matrix coefficients : BT.709
Audio #1
ID : 2
Format : AC-3
Format/Info : Audio Coding 3
Mode extension : CM (complete main)
Format settings, Endianness : Big
Codec ID : A_AC3
Duration : 1h 22mn
Bit rate mode : Constant
Bit rate : 192 Kbps
Channel count : 2 channels
Channel positions : Front: L R
Sampling rate : 48.0 KHz
Bit depth : 16 bits
Compression mode : Lossy
Stream size : 113 MiB (1%)
Title : DVO
Language : Russian
Default : Yes
Forced : No
Audio #2
ID : 3
Format : AC-3
Format/Info : Audio Coding 3
Mode extension : CM (complete main)
Format settings, Endianness : Big
Codec ID : A_AC3
Duration : 1h 22mn
Bit rate mode : Constant
Bit rate : 192 Kbps
Channel count : 2 channels
Channel positions : Front: L R
Sampling rate : 48.0 KHz
Bit depth : 16 bits
Compression mode : Lossy
Stream size : 113 MiB (1%)
Title : DVO Культура
Language : Russian
Default : No
Forced : No
Audio #3
ID : 4
Format : AC-3
Format/Info : Audio Coding 3
Mode extension : CM (complete main)
Format settings, Endianness : Big
Codec ID : A_AC3
Duration : 1h 22mn
Bit rate mode : Constant
Bit rate : 192 Kbps
Channel count : 2 channels
Channel positions : Front: L R
Sampling rate : 48.0 KHz
Bit depth : 16 bits
Compression mode : Lossy
Stream size : 113 MiB (1%)
Title : А. Михалев
Language : Russian
Default : No
Forced : No
Audio #4
ID : 5
Format : DTS
Format/Info : Digital Theater Systems
Format profile : MA / Core
Mode : 16
Format settings, Endianness : Big
Codec ID : A_DTS
Duration : 1h 22mn
Bit rate mode : Variable
Bit rate : Unknown / 768 Kbps
Channel count : 1 channel
Channel positions : Front: C
Sampling rate : 48.0 KHz
Bit depth : 24 bits
Compression mode : Lossless / Lossy
Language : English
Default : No
Forced : No
Text
ID : 6
Format : UTF-8
Codec ID : S_TEXT/UTF8
Codec ID/Info : UTF-8 Plain Text
Language : English
Default : No
Forced : No

Скриншоты




Показать сообщения:    

Текущее время: 04-Дек 17:20

Часовой пояс: UTC + 3


Вы не можете начинать темы
Вы не можете отвечать на сообщения
Вы не можете редактировать свои сообщения
Вы не можете удалять свои сообщения
Вы не можете голосовать в опросах
Вы не можете прикреплять файлы к сообщениям
Вы не можете скачивать файлы