Чёрный уголь, тонкий лёд / Black Coal, Thin Ice / Bai ri yan huo (Йинан Дяо / Yinan Diao) [2014, Китай, триллер, драма, криминал, детектив, BDRip 1080p] DVO (DeadSno & den904) + VO (R.A.I.M) + Sub Rus, Eng + Original Chi


 

[Цитировать]

Чёрный уголь, тонкий лёд / Black Coal, Thin Ice / Bai ri yan huo
Страна: Китай
Студия: Omnijoi Media, Boneyard Entertainment China, China Film Co.
Жанр: триллер, драма, криминал, детектив
Год выпуска: 2014
Продолжительность: 01:49:24
Перевод 1: Любительский (двухголосый закадровый) DeadSno & den904
Перевод 2: Одноголосый закадровый R.A.I.M
Cубтитры: русские, английские
Оригинальная аудиодорожка: китайский
Режиссер: Йинан Дяо / Yinan Diao
В ролях: Ляо Фань, Квай Луньмэй, Ван Сюэбин, Ван Цзинчунь
Описание: Северный Китай, 1999 год. В небольшом городке обнаруживают несколько трупов. В результате попытки поймать предполагаемого убийцу погибают двое полицейских, и один получает тяжелые ранения. Выжившего офицера отстраняют от работы, и он устраивается на завод охранником. Пять лет спустя происходит еще одна серия загадочных убийств…
II Сэмпл II IMDB II
Релиз группа:

Тип релиза: BDRip 1080p (Black.Coal.Thin.Ice.2014.1080p.BluRay.x264.DTS-WiKi)
Контейнер: MKV
Видео: AVC / 1920x1036 / 1.85:1 / 23.976fps / Bit rate 14195Kbps / High@L4.1
Аудио 1: AC3 / 48.0KHz / 6ch. / 448kbps / rus / dvo / DeadSno & den904
Аудио 2: AC3 / 48.0KHz / 2ch. / 192kbps / rus / vo / R.A.I.M
Аудио 3: DTS / 48.0KHz / 24bit / 6ch. / 1509kbps / chi
Формат субтитров: softsub (SRT)

MediaInfo

Общее
Уникальный идентификатор : 254426615277291005027461211123776139205 (0xBF68C8A0A3AF152CAC68C92B9ACEAFC5)
Полное имя : E:\torrent\Black.Coal.Thin.Ice.2014.BDRip.1080p.Sub.Rus.Eng.mkv
Формат : Matroska
Версия формата : Version 4 / Version 2
Размер файла : 12,5 Гбайт
Продолжительность : 1 ч. 49 м.
Общий поток : 16,3 Мбит/сек
Дата кодирования : UTC 2015-01-29 06:23:20
Программа кодирования : mkvmerge v7.5.0 ('Glass Culture') 64bit built on Jan 4 2015 16:48:44
Библиотека кодирования : libebml v1.3.1 + libmatroska v1.4.2
DURATION : 01:44:06.540000000
NUMBER_OF_FRAMES : 596
NUMBER_OF_BYTES : 30201
_STATISTICS_WRITING_APP : mkvmerge v7.5.0 ('Glass Culture') 64bit built on Jan 4 2015 16:48:44
_STATISTICS_WRITING_DATE_UTC : 2015-01-29 06:23:20
_STATISTICS_TAGS : BPS DURATION NUMBER_OF_FRAMES NUMBER_OF_BYTES
Видео
Идентификатор : 1
Формат : AVC
Формат/Информация : Advanced Video Codec
Профиль формата : High@L4.1
Параметр CABAC формата : Да
Параметр ReFrames формата : 4 кадра
Идентификатор кодека : V_MPEG4/ISO/AVC
Продолжительность : 1 ч. 49 м.
Битрейт : 14,2 Мбит/сек
Ширина : 1920 пикселей
Высота : 1036 пикселей
Соотношение сторон : 1,85:1
Режим частоты кадров : Постоянный
Частота кадров : 23,976 кадра/сек
Цветовое пространство : YUV
Субдискретизация насыщенности : 4:2:0
Битовая глубина : 8 бит
Тип развёртки : Прогрессивная
Бит/(Пиксели*Кадры) : 0.298
Размер потока : 10,6 Гбайт (85%)
Заголовок : Black.Coal.Thin.Ice.2014.BDRip.1080p.Sub.Rus.Eng
Библиотека кодирования : x264 core 129 r2245 bc13772
Настройки программы : cabac=1 / ref=4 / deblock=1:-3:-3 / analyse=0x3:0x133 / me=umh / subme=11 / psy=1 / psy_rd=1.05:0.05 / mixed_ref=1 / me_range=64 / chroma_me=1 / trellis=2 / 8x8dct=1 / cqm=0 / deadzone=21,11 / fast_pskip=0 / chroma_qp_offset=-3 / threads=12 / lookahead_threads=2 / sliced_threads=0 / nr=0 / decimate=1 / interlaced=0 / bluray_compat=0 / constrained_intra=0 / bframes=8 / b_pyramid=2 / b_adapt=2 / b_bias=0 / direct=3 / weightb=1 / open_gop=0 / weightp=2 / keyint=250 / keyint_min=23 / scenecut=40 / intra_refresh=0 / rc_lookahead=60 / rc=2pass / mbtree=1 / bitrate=14195 / ratetol=1.0 / qcomp=0.60 / qpmin=0 / qpmax=69 / qpstep=4 / cplxblur=20.0 / qblur=0.5 / vbv_maxrate=40000 / vbv_bufsize=30000 / nal_hrd=none / ip_ratio=1.40 / aq=1:0.80
Default : Да
Forced : Нет
DURATION : 01:49:24.141000000
NUMBER_OF_FRAMES : 157382
NUMBER_OF_BYTES : 11639500950
_STATISTICS_WRITING_APP : mkvmerge v7.5.0 ('Glass Culture') 64bit built on Jan 4 2015 16:48:44
_STATISTICS_WRITING_DATE_UTC : 2015-01-29 06:23:20
_STATISTICS_TAGS : BPS DURATION NUMBER_OF_FRAMES NUMBER_OF_BYTES
Аудио #1
Идентификатор : 2
Формат : AC-3
Формат/Информация : Audio Coding 3
Расширение режима : CM (complete main)
Параметр Endianness формата : Big
Идентификатор кодека : A_AC3
Продолжительность : 1 ч. 49 м.
Вид битрейта : Постоянный
Битрейт : 448 Кбит/сек
Каналы : 6 каналов
Расположение каналов : Front: L C R, Side: L R, LFE
Частота : 48,0 КГц
Битовая глубина : 16 бит
Метод сжатия : С потерями
Размер потока : 351 Мбайт (3%)
Заголовок : rus / dvo / DeadSno & den904 / AC3 / 6ch / 448kbps
Язык : Russian
Default : Да
Forced : Нет
Аудио #2
Идентификатор : 3
Формат : AC-3
Формат/Информация : Audio Coding 3
Расширение режима : CM (complete main)
Параметр Endianness формата : Big
Идентификатор кодека : A_AC3
Продолжительность : 1 ч. 49 м.
Вид битрейта : Постоянный
Битрейт : 192 Кбит/сек
Каналы : 2 канала
Расположение каналов : Front: L R
Частота : 48,0 КГц
Битовая глубина : 16 бит
Метод сжатия : С потерями
Размер потока : 150 Мбайт (1%)
Заголовок : rus / vo / R.A.I.M / AC3 / 2ch / 192kbps
Язык : Russian
Default : Нет
Forced : Нет
Аудио #3
Идентификатор : 4
Формат : DTS
Формат/Информация : Digital Theater Systems
Режим : 16
Параметр Endianness формата : Big
Идентификатор кодека : A_DTS
Продолжительность : 1 ч. 49 м.
Вид битрейта : Постоянный
Битрейт : 1509 Кбит/сек
Каналы : 6 каналов
Расположение каналов : Front: L C R, Side: L R, LFE
Частота : 48,0 КГц
Битовая глубина : 24 бит
Метод сжатия : С потерями
Размер потока : 1,15 Гбайт (9%)
Заголовок : chi / DTS / 24bits / 6ch / 1509kbps
Язык : Chinese
Default : Нет
Forced : Нет
Текст #1
Идентификатор : 5
Формат : UTF-8
Идентификатор кодека : S_TEXT/UTF8
Идентификатор кодека/Информация : UTF-8 Plain Text
Заголовок : subtitle rus / julz_nsk
Язык : Russian
Default : Нет
Forced : Нет
Текст #2
Идентификатор : 6
Формат : UTF-8
Идентификатор кодека : S_TEXT/UTF8
Идентификатор кодека/Информация : UTF-8 Plain Text
Заголовок : subtitle eng
Язык : English
Default : Нет
Forced : Нет
Меню
00:00:00.000 : en:00:00:00.000
00:10:25.959 : en:00:10:25.959
00:20:56.005 : en:00:20:56.005
00:29:29.601 : en:00:29:29.601
00:40:47.111 : en:00:40:47.111
00:48:38.207 : en:00:48:38.207
01:00:46.518 : en:01:00:46.518
01:09:07.894 : en:01:09:07.894
01:19:52.663 : en:01:19:52.663
01:31:50.130 : en:01:31:50.130
01:40:05.499 : en:01:40:05.499
01:46:02.940 : en:01:46:02.940

Скриншоты





Показать сообщения:    

Текущее время: 10-Дек 10:01

Часовой пояс: UTC + 3


Вы не можете начинать темы
Вы не можете отвечать на сообщения
Вы не можете редактировать свои сообщения
Вы не можете удалять свои сообщения
Вы не можете голосовать в опросах
Вы не можете прикреплять файлы к сообщениям
Вы не можете скачивать файлы