Навязчивые ритмы / Cadences obstinees (Фанни Ардан / Fanny Ardant) [2013, Франция, Португалия, мелодрама, HDTV 1080i] MVO


 

[Цитировать]

Навязчивые ритмы / Cadences obstinées- Страна: Франция, Португалия
Студия: Alfama Films, France 3 Cinéma, Leopardo Filmes
Жанр: мелодрама
Год выпуска: 2013
Продолжительность: 01:37:30
Перевод: Профессиональный (многоголосый закадровый)
Cубтитры: нет
Оригинальная аудиодорожка: нет-Режиссер: Фанни Ардан / Fanny Ardant
В ролях: Азия Ардженто, Нуно Лопес,Франко Неро, Тудор Истодор, Рикардо Перейра, Йохан Лейзен, Жерар Депардье, Мика, Лаура Соверал, Андре Гомес-Описание: Марго отказалась от блестящей музыкальной карьеры ради отношений с Фурио, и теперь старается сохранить то, что осталось от их прежней любви. Одновременно с этим ее возлюбленный Фурио пытается закончить реставрацию старинного дворца, но задача оказывается невыполнимой из-за бесконечных преград, возникающих на его пути.-Семпл: http://multi-up.com/1029303-Тип релиза: HDTV 1080i
Контейнер: TS
Видео: 1920x1080i (16:9), 25.000 fps, AVC, ~5941 Kbps, 0.115 bits/pixel
Аудио: Русский, 48.0 KHz, AC3, 6 ch, 448 Kbps

MediaInfo

General
ID : 1 (0x1)
Complete name : Cadences obstinees 2013 HDTV 1080i HD-Kino NTV+ MVO.ts
Format : MPEG-TS
File size : 4.58 GiB
Duration : 1h 37mn
Overall bit rate mode : Variable
Overall bit rate : 6 726 Kbps
Video
ID : 321 (0x141)
Menu ID : 1 (0x1)
Format : AVC
Format/Info : Advanced Video Codec
Format profile : High@L4.0
Format settings, CABAC : Yes
Format settings, ReFrames : 4 frames
Codec ID : 27
Duration : 1h 37mn
Bit rate : 5 941 Kbps
Width : 1 920 pixels
Height : 1 080 pixels
Display aspect ratio : 16:9
Frame rate : 25.000 fps
Standard : Component
Color space : YUV
Chroma subsampling : 4:2:0
Bit depth : 8 bits
Scan type : Interlaced
Scan order : Top Field First
Bits/(Pixel*Frame) : 0.115
Stream size : 4.05 GiB (88%)
Color primaries : BT.709
Transfer characteristics : BT.709
Matrix coefficients : BT.709
Color range : Limited
Audio
ID : 401 (0x191)
Menu ID : 1 (0x1)
Format : AC-3
Format/Info : Audio Coding 3
Mode extension : CM (complete main)
Format settings, Endianness : Big
Codec ID : 6
Duration : 1h 37mn
Bit rate mode : Constant
Bit rate : 448 Kbps
Channel(s) : 6 channels
Channel positions : Front: L C R, Side: L R, LFE
Sampling rate : 48.0 KHz
Bit depth : 16 bits
Compression mode : Lossy
Stream size : 312 MiB (7%)
Language : Russian

Скриншоты




Показать сообщения:    

Текущее время: 07-Дек 13:37

Часовой пояс: UTC + 3


Вы не можете начинать темы
Вы не можете отвечать на сообщения
Вы не можете редактировать свои сообщения
Вы не можете удалять свои сообщения
Вы не можете голосовать в опросах
Вы не можете прикреплять файлы к сообщениям
Вы не можете скачивать файлы