Выкорми ворона / Вскорми ворона / Cria Cuervos / Raise Ravens (Карлос Саура / Carlos Saura) [1975 г., Испания, драма, BDRemux 1080p] MVO (Культура) + VO + Original (Spa) + Eng + Sub (Rus, Eng)


 

[Цитировать]

Выкорми ворона / Вскорми ворона / Cria Cuervos- Год выпуска: 1975
Страна: Испания
Жанр: драма
Продолжительность: 01:49:51
Перевод:
  • Профессиональный (многоголосый закадровый) т/к «Культура»
  • Одноголосый закадровый
Оригинальная аудиодорожка: Испанская
Cубтитры: Русские (форсированные на песни, полные), английские-Режиссер: Карлос Саура / Carlos Saura
В ролях: Ана Торрент, Джеральдина Чаплин, Кончи Перес, Майте Санчес, Моника Рэнделл, Эктор Альтерио, Флоринда Чико, Хосефина Диас, Мирта Миллер-Описание: Один из лучших фильмов Карлоса Сауры, в котором его стиль иносказательной, зашифрованной притчи на грани между сном и реальностью, воображаемым и действительным отшлифован до блеска, изыскан и утончен.
Накануне года кончины Франко и падения фашистской диктатуры режиссер проницательно угадал почти мистический ореол смерти, окружающий испанскую действительность. Этот мир напоминает могильный склеп, кошмары и неотступные видения преследуют и не дают покоя, жизнь неотличима от загробного существования. У десятилетней, не по годам серьезной, будто знающей некую тайну Аны умерла мать, затем отец, причем в объятиях своей любовницы, кроме того, парализована бабушка, а сама девочка, в отличие от двух старших сестер, живет словно двойной жизнью, находясь и здесь, и там, где обитают иные сущности, видя то, о чем не подозревают другие. Ее тетя Паулина безуспешно пытается проникнуть в суть вещих снов и предсказаний Аны, воспринимая ее как испорченного ребенка, злое создание, подобное тому ворону из пословицы, который в ответ на заботу может «глаз выклевать». На самом деле, Саура вкладывает в название картины абсолютно противоположное символическое значение. Малолетняя воздаятельница мести за смерть своей матери может быть лишь «ангелом-истребителем», пророчествующим о подлинном «вороне зла», который вскормлен всем другим на погибель.-За «Культуру» спасибо Cheef mate.
| | Сэмпл-Качество: BDRemux (Cría cuervos a k a Raise Ravens 1976 1080p GBR Blu-ray AVC LPCM 1.0 - ESiR)
Контейнер: MKV
Видео: AVC, 1920x1080 (1.66), 23.976 fps, 20495 kbps
Аудио 1: Русский AC-3 2.0, 48 kHz, 256 kbps — Культура
Аудио 2: Русский AC-3 2.0, 48 kHz, 192 kbps — VO
Аудио 3: Испанский DTS-HD MA 1.0, 48 kHz, 924 kbps, 24-bit (DTS Core: 1.0, 48 kHz, 768 kbps, 24-bit)
Аудио 4: Английский FLAC 1.0, 48 kHz, 269 kbps
Формат субтитров: softsub (SRT)

Скриншоты


MI

General
Unique ID : 193074077654683053760188228191861995531 (0x9140B6FAC62F8FB294F33CD993A5F80B)
Complete name : Cria.cuervos.1976.1080p.BDRemux.mkv
Format : Matroska
Format version : Version 2
File size : 17.0 GiB
Duration : 1h 49mn
Overall bit rate mode : Variable
Overall bit rate : 22.1 Mbps
Movie name : Cría cuervos / Выкорми ворона (1976) – RuTracker
Encoded date : UTC 2015-01-20 17:39:42
Writing application : mkvmerge v7.0.0 ('Where We Going') 64bit built on Jun 9 2014 15:16:27
Writing library : libebml v1.3.0 + libmatroska v1.4.1
Attachements : cover.jpg
Video
ID : 1
Format : AVC
Format/Info : Advanced Video Codec
Format profile : High@L4.1
Format settings, CABAC : Yes
Format settings, ReFrames : 4 frames
Format settings, GOP : M=3, N=24
Codec ID : V_MPEG4/ISO/AVC
Duration : 1h 49mn
Bit rate mode : Variable
Maximum bit rate : 35.0 Mbps
Width : 1 920 pixels
Height : 1 080 pixels
Display aspect ratio : 16:9
Frame rate mode : Constant
Frame rate : 23.976 fps
Standard : NTSC
Color space : YUV
Chroma subsampling : 4:2:0
Bit depth : 8 bits
Scan type : Progressive
Title : Cría cuervos 1976 1080p GBR Blu-ray AVC LPCM 1.0-ESiR
Language : English
Default : Yes
Forced : No
Color primaries : BT.709
Transfer characteristics : BT.709
Matrix coefficients : BT.709
Audio #1
ID : 2
Format : AC-3
Format/Info : Audio Coding 3
Mode extension : CM (complete main)
Format settings, Endianness : Big
Codec ID : A_AC3
Duration : 1h 49mn
Bit rate mode : Constant
Bit rate : 256 Kbps
Channel(s) : 2 channels
Channel positions : Front: L R
Sampling rate : 48.0 KHz
Bit depth : 16 bits
Compression mode : Lossy
Stream size : 201 MiB (1%)
Title : MVO – Культура
Language : Russian
Default : Yes
Forced : No
Audio #2
ID : 3
Format : AC-3
Format/Info : Audio Coding 3
Mode extension : CM (complete main)
Format settings, Endianness : Big
Codec ID : A_AC3
Duration : 1h 49mn
Bit rate mode : Constant
Bit rate : 192 Kbps
Channel(s) : 2 channels
Channel positions : Front: L R
Sampling rate : 48.0 KHz
Bit depth : 16 bits
Compression mode : Lossy
Stream size : 151 MiB (1%)
Title : VO
Language : Russian
Default : No
Forced : No
Audio #3
ID : 4
Format : DTS
Format/Info : Digital Theater Systems
Format profile : MA / Core
Mode : 16
Format settings, Endianness : Big
Codec ID : A_DTS
Duration : 1h 49mn
Bit rate mode : Variable
Bit rate : Unknown / 768 Kbps
Channel(s) : 1 channel
Channel positions : Front: C
Sampling rate : 48.0 KHz
Bit depth : 24 bits
Compression mode : Lossless / Lossy
Title : Original
Language : Spanish
Default : No
Forced : No
Audio #4
ID : 5
Format : FLAC
Format/Info : Free Lossless Audio Codec
Codec ID : A_FLAC
Duration : 1h 49mn
Bit rate mode : Variable
Channel(s) : 1 channel
Sampling rate : 48.0 KHz
Bit depth : 24 bits
Title : Dub
Writing library : libFLAC 1.2.1 (UTC 2007-09-17)
Language : English
Default : No
Forced : No
Text #1
ID : 6
Format : UTF-8
Codec ID : S_TEXT/UTF8
Codec ID/Info : UTF-8 Plain Text
Title : forced
Language : Russian
Default : Yes
Forced : Yes
Text #2
ID : 7
Format : UTF-8
Codec ID : S_TEXT/UTF8
Codec ID/Info : UTF-8 Plain Text
Language : Russian
Default : No
Forced : No
Text #3
ID : 8
Format : UTF-8
Codec ID : S_TEXT/UTF8
Codec ID/Info : UTF-8 Plain Text
Language : English
Default : No
Forced : No
Menu
00:00:00.000 : en:01. "I can't breathe"
00:09:14.554 : en:02. Anselmo's funeral
00:15:24.924 : en:03. Flying
00:25:41.540 : en:04. Wandering hands
00:29:16.755 : en:05. Dancing and dressing up
00:45:19.926 : en:06. Remembering Mama
01:07:36.052 : en:07. A trip to the country
01:17:44.660 : en:08. "A horrible poison"
01:25:16.528 : en:09. Roni
01:33:32.899 : en:10. "I hope she dies"
01:42:41.155 : en:11. Back to school
01:47:48.462 : en:12. End credits



Показать сообщения:    

Текущее время: 06-Дек 20:56

Часовой пояс: UTC + 3


Вы не можете начинать темы
Вы не можете отвечать на сообщения
Вы не можете редактировать свои сообщения
Вы не можете удалять свои сообщения
Вы не можете голосовать в опросах
Вы не можете прикреплять файлы к сообщениям
Вы не можете скачивать файлы