Четыре минуты / Vier Minuten (Крис Краус / Chris Kraus) [2006, Германия, драма, BDRip 720p] MVO + AVO (Кузнецов) + Original Ger + Sub Rus Eng


 

[Цитировать]

Четыре минуты / Vier Minuten
Страна: Германия
Жанр: драма
Год выпуска: 2006
Продолжительность: 01:55:18
Перевод 1: Профессиональный (многоголосый закадровый) [Cinema Prestige]
Перевод 2: Авторский (одноголосый закадровый) [Кузнецов]
Оригинальная аудиодорожка: немецкая
Cубтитры: русские (*srt), английские (*srt)
Режиссер: Крис Краус / Chris Kraus
В ролях: Моника Бляйбтрой, Ханна Херцшпрунг, Свен Пиппиг, Ричи Мюллер, Джасмин Табатабай, Стефан Курт, Вадим Гловна, Надя Уль, Питер Давор, Эдита Маловцик
Описание:Пожилая женщина устраивается в тюрьму для женщин учителем по игре на фортепьяно. На уроки записываются четыре заключённых, одна из которых повесилась, другая нервная, третья ничем не примечательная, а четвёртая обладает божьим даром выдавать из обычного фортепьяно великолепное звучание. Учитель не могла поверить, что такой конченый человек, сгнивающий в четырёх бетонных стенах, способен путём музыкального инструмента так превосходно сыграть радостную негритянскую музыку, несмотря на все свои невзгоды и заведённое на неё за убийство дело. Пожилая преподаватель видит её дар и подаёт ей руку помощи, предлагая развить талант и выступить на некоторых концертах юных исполнителей...

Качество: BDRip 720p
Контейнер: AVC
Видео: MPEG-4, 1280x720, 7303 kbps, 23.976 кадр/с
Аудио 1: русский, AC3, 640 kbps, 6 ch, 48 kHz |MVO

Аудио 2: русский, AC3, 384 kbps, 2 ch, 48 kHz |AVO

Аудио 3: немецкий, AC3, 448 kbps, 6 ch, 48 kHz |Org

MI

Общее
Уникальный идентификатор : 240895106425874975549264587943293698673 (0xB53AB5BB7EAE0E35922A178F52B34271)
Полное имя : C:\Users\Пользователь\Downloads\4 minuty.2006.BDRip.720p.mkv
Формат : Matroska
Версия формата : Version 4 / Version 2
Размер файла : 7,21 Гбайт
Продолжительность : 1 ч. 55 м.
Общий поток : 8954 Кбит/сек
Дата кодирования : UTC 2015-01-16 18:31:24
Программа кодирования : mkvmerge v7.3.0 ('Nouages') 64bit built on Oct 22 2014 18:53:34
Библиотека кодирования : libebml v1.3.0 + libmatroska v1.4.1
_STATISTICS_WRITING_APP : mkvmerge v7.3.0 ('Nouages') 64bit built on Oct 22 2014 18:53:34
_STATISTICS_WRITING_DATE_UTC : 2015-01-16 18:31:24
_STATISTICS_TAGS : BPS DURATION NUMBER_OF_FRAMES NUMBER_OF_BYTES
DURATION : 01:42:33.442000000
NUMBER_OF_FRAMES : 784
NUMBER_OF_BYTES : 24746
Видео
Идентификатор : 1
Формат : AVC
Формат/Информация : Advanced Video Codec
Профиль формата : High@L4.1
Параметр CABAC формата : Да
Параметр ReFrames формата : 9 кадров
Идентификатор кодека : V_MPEG4/ISO/AVC
Продолжительность : 1 ч. 55 м.
Битрейт : 7303 Кбит/сек
Ширина : 1280 пикселей
Высота : 720 пикселей
Соотношение сторон : 16:9
Режим частоты кадров : Постоянный
Частота кадров : 23,976 кадра/сек
Цветовое пространство : YUV
Субдискретизация насыщенности : 4:2:0
Битовая глубина : 8 бит
Тип развёртки : Прогрессивная
Бит/(Пиксели*Кадры) : 0.331
Размер потока : 5,88 Гбайт (82%)
Заголовок : BDRip -- STarankov
Библиотека кодирования : x264 core 142 r2431 ac76440
Настройки программы : cabac=1 / ref=9 / deblock=1:-1:-1 / analyse=0x3:0x113 / me=umh / subme=10 / psy=1 / psy_rd=1.00:0.15 / mixed_ref=1 / me_range=32 / chroma_me=1 / trellis=2 / 8x8dct=1 / cqm=0 / deadzone=21,11 / fast_pskip=1 / chroma_qp_offset=-3 / threads=6 / lookahead_threads=1 / sliced_threads=0 / nr=0 / decimate=1 / interlaced=0 / bluray_compat=0 / constrained_intra=0 / bframes=8 / b_pyramid=2 / b_adapt=2 / b_bias=0 / direct=3 / weightb=1 / open_gop=0 / weightp=2 / keyint=230 / keyint_min=23 / scenecut=40 / intra_refresh=0 / rc_lookahead=40 / rc=crf / mbtree=0 / crf=18.0 / qcomp=0.60 / qpmin=0 / qpmax=69 / qpstep=4 / vbv_maxrate=40000 / vbv_bufsize=50000 / crf_max=0.0 / nal_hrd=none / filler=0 / ip_ratio=1.40 / pb_ratio=1.30 / aq=1:1.00
Язык : German
Default : Да
Forced : Нет
_STATISTICS_WRITING_APP : mkvmerge v7.3.0 ('Nouages') 64bit built on Oct 22 2014 18:53:34
_STATISTICS_WRITING_DATE_UTC : 2015-01-16 18:31:24
_STATISTICS_TAGS : BPS DURATION NUMBER_OF_FRAMES NUMBER_OF_BYTES
DURATION : 01:55:18.787000000
NUMBER_OF_FRAMES : 165885
NUMBER_OF_BYTES : 6468305332
Аудио #1
Идентификатор : 2
Формат : AC-3
Формат/Информация : Audio Coding 3
Расширение режима : CM (complete main)
Параметр Endianness формата : Big
Идентификатор кодека : A_AC3
Продолжительность : 1 ч. 55 м.
Вид битрейта : Постоянный
Битрейт : 640 Кбит/сек
Каналы : 6 каналов
Расположение каналов : Front: L C R, Side: L R, LFE
Частота : 48,0 КГц
Битовая глубина : 16 бит
Метод сжатия : С потерями
Размер потока : 528 Мбайт (7%)
Заголовок : MVO (Cinema Prestige)
Язык : Russian
Default : Да
Forced : Нет
Аудио #2
Идентификатор : 3
Формат : AC-3
Формат/Информация : Audio Coding 3
Расширение режима : CM (complete main)
Параметр Endianness формата : Big
Идентификатор кодека : A_AC3
Продолжительность : 1 ч. 55 м.
Вид битрейта : Постоянный
Битрейт : 384 Кбит/сек
Каналы : 2 канала
Расположение каналов : Front: L R
Частота : 48,0 КГц
Битовая глубина : 16 бит
Метод сжатия : С потерями
Размер потока : 317 Мбайт (4%)
Заголовок : AVO (Сергей Кузнецов)
Язык : Russian
Default : Нет
Forced : Нет
Аудио #3
Идентификатор : 4
Формат : AC-3
Формат/Информация : Audio Coding 3
Расширение режима : CM (complete main)
Параметр Endianness формата : Big
Идентификатор кодека : A_AC3
Продолжительность : 1 ч. 55 м.
Вид битрейта : Постоянный
Битрейт : 448 Кбит/сек
Каналы : 6 каналов
Расположение каналов : Front: L C R, Side: L R, LFE
Частота : 48,0 КГц
Битовая глубина : 16 бит
Метод сжатия : С потерями
Размер потока : 370 Мбайт (5%)
Заголовок : Original
Язык : German
Default : Нет
Forced : Нет
Текст #1
Идентификатор : 5
Формат : UTF-8
Идентификатор кодека : S_TEXT/UTF8
Идентификатор кодека/Информация : UTF-8 Plain Text
Заголовок : русский
Язык : Russian
Default : Нет
Forced : Нет
Текст #2
Идентификатор : 6
Формат : UTF-8
Идентификатор кодека : S_TEXT/UTF8
Идентификатор кодека/Информация : UTF-8 Plain Text
Default : Нет
Forced : Нет
Меню
00:00:00.000 : :Chapter 01
00:08:54.239 : :Chapter 02
00:14:11.391 : :Chapter 03
00:19:39.926 : :Chapter 04
00:26:43.225 : :Chapter 05
00:31:40.604 : :Chapter 06
00:40:54.283 : :Chapter 07
00:51:04.478 : :Chapter 08
00:57:56.014 : :Chapter 09
01:03:57.041 : :Chapter 10
01:08:31.103 : :Chapter 11
01:14:09.568 : :Chapter 12
01:22:03.334 : :Chapter 13
01:29:08.885 : :Chapter 14
01:39:59.868 : :Chapter 15
01:50:00.593 : :Chapter 16
01:55:17.911 : :Chapter 17

Скриншоты




Показать сообщения:    

Текущее время: 11-Дек 01:21

Часовой пояс: UTC + 3


Вы не можете начинать темы
Вы не можете отвечать на сообщения
Вы не можете редактировать свои сообщения
Вы не можете удалять свои сообщения
Вы не можете голосовать в опросах
Вы не можете прикреплять файлы к сообщениям
Вы не можете скачивать файлы