Самые красивые / The Most Beautiful / Ichiban utsukushiku (Акира Куросава / Akira Kurosawa) [1944, Япония, драма, BDRip 1080p] DVO (студия Инис) + AVO (С. Рябов) + Sub Rus, Eng + Original Jap


 

[Цитировать]

Самые красивые / The Most Beautiful / Ichiban utsukushiku
Страна: Япония
Студия: Toho Company
Жанр: драма
Год выпуска: 1944
Продолжительность: 01:27:11
Перевод 1: Профессиональный (двухголосый закадровый) студия Инис
Перевод 2: Авторский (одноголосый закадровый) С. Рябов
Cубтитры: русские, английские
Оригинальная аудиодорожка: японский
Режиссер: Акира Куросава / Akira Kurosawa
В ролях: Такаси Симура, Сёдзи Киёкава, Итиро Сугаи, Такако Ириэ, Йоко Ягучи, Sayuri Tanima, Сачико Озаки, Сидзуко Нишигаки, Асако Сузуки, Харуко Тояма
Описание: Фильм рассказывает о нелёгком труде женщин на военном заводе. Героини показаны не патриотично-иступлёнными автоматами, а живыми людьми, тонко чувствующими и способными на глубокие переживания.
II Сэмпл II IMDB II
Релиз группа:

Доп. информация:
За перевод студии Инис спасибо G00ba
Тип релиза: BDRip 1080p - BDRip
Контейнер: MKV
Видео: AVC / 1440x1080 / 4:3 / 23.976fps / Bit rate 24000Kbps / High@L4.1
Аудио 1: AC3 / 48.0KHz / 2ch. / 192kbps / rus / dvo / студия Инис
Аудио 2: AC3 / 48.0KHz / 2ch. / 192kbps / rus / avo / С. Рябов
Аудио 3: Flac / 48.0KHz / 16bits / 2ch. / 325kbps / jap
Формат субтитров: softsub (SRT)

MediaInfo

Общее
Уникальный идентификатор : 178557599355101840285051562248938342926 (0x8654F15761B73D548B3DD20F701E4A0E)
Полное имя : E:\torrent\The.Most.Beautiful.1944.BDRip.1080p_Sub.Rus.Eng.mkv
Формат : Matroska
Версия формата : Version 4 / Version 2
Размер файла : 15,0 Гбайт
Продолжительность : 1 ч. 27 м.
Режим общего битрейта : Переменный
Общий поток : 24,7 Мбит/сек
Дата кодирования : UTC 2015-01-20 00:30:36
Программа кодирования : mkvmerge v7.5.0 ('Glass Culture') 64bit built on Jan 4 2015 16:48:44
Библиотека кодирования : libebml v1.3.1 + libmatroska v1.4.2
Attachements : Ichiban.utsukushiku.Blu-ray.jpg
DURATION : 01:25:07.034000000
NUMBER_OF_FRAMES : 781
NUMBER_OF_BYTES : 22847
_STATISTICS_WRITING_APP : mkvmerge v7.5.0 ('Glass Culture') 64bit built on Jan 4 2015 16:48:44
_STATISTICS_WRITING_DATE_UTC : 2015-01-20 00:30:36
_STATISTICS_TAGS : BPS DURATION NUMBER_OF_FRAMES NUMBER_OF_BYTES
Видео
Идентификатор : 1
Формат : AVC
Формат/Информация : Advanced Video Codec
Профиль формата : High@L4.1
Параметр CABAC формата : Да
Параметр ReFrames формата : 5 кадров
Идентификатор кодека : V_MPEG4/ISO/AVC
Продолжительность : 1 ч. 27 м.
Номинальный битрейт : 24,0 Мбит/сек
Ширина : 1440 пикселей
Высота : 1080 пикселей
Соотношение сторон : 4:3
Режим частоты кадров : Постоянный
Частота кадров : 23,976 кадра/сек
Цветовое пространство : YUV
Субдискретизация насыщенности : 4:2:0
Битовая глубина : 8 бит
Тип развёртки : Прогрессивная
Бит/(Пиксели*Кадры) : 0.644
Заголовок : The.Most.Beautiful.1944.BDRip.1080p_Sub.Rus.Eng
Библиотека кодирования : x264 core 144 r2525 40bb568
Настройки программы : cabac=1 / ref=5 / deblock=1:-3:-3 / analyse=0x3:0x133 / me=umh / subme=11 / psy=1 / psy_rd=1.00:0.10 / mixed_ref=1 / me_range=64 / chroma_me=1 / trellis=2 / 8x8dct=1 / cqm=0 / deadzone=21,11 / fast_pskip=0 / chroma_qp_offset=-3 / threads=12 / lookahead_threads=3 / sliced_threads=0 / nr=0 / decimate=1 / interlaced=0 / bluray_compat=0 / constrained_intra=0 / bframes=12 / b_pyramid=2 / b_adapt=2 / b_bias=0 / direct=3 / weightb=1 / open_gop=0 / weightp=2 / keyint=250 / keyint_min=23 / scenecut=40 / intra_refresh=0 / rc_lookahead=40 / rc=2pass / mbtree=0 / bitrate=24000 / ratetol=1.0 / qcomp=0.60 / qpmin=0 / qpmax=69 / qpstep=4 / cplxblur=20.0 / qblur=0.5 / vbv_maxrate=50000 / vbv_bufsize=62500 / nal_hrd=none / filler=0 / ip_ratio=1.40 / pb_ratio=1.30 / aq=1:1.00
Default : Да
Forced : Нет
DURATION : 01:27:11.143000000
NUMBER_OF_FRAMES : 125422
NUMBER_OF_BYTES : 15682326927
_STATISTICS_WRITING_APP : mkvmerge v7.5.0 ('Glass Culture') 64bit built on Jan 4 2015 16:48:44
_STATISTICS_WRITING_DATE_UTC : 2015-01-20 00:30:36
_STATISTICS_TAGS : BPS DURATION NUMBER_OF_FRAMES NUMBER_OF_BYTES
Аудио #1
Идентификатор : 2
Формат : AC-3
Формат/Информация : Audio Coding 3
Расширение режима : CM (complete main)
Параметр Endianness формата : Big
Идентификатор кодека : A_AC3
Продолжительность : 1 ч. 27 м.
Вид битрейта : Постоянный
Битрейт : 192 Кбит/сек
Каналы : 2 канала
Расположение каналов : Front: L R
Частота : 48,0 КГц
Битовая глубина : 16 бит
Метод сжатия : С потерями
Размер потока : 120 Мбайт (1%)
Заголовок : rus / dvo / Inis / AC3 / 2ch / 192Kbps
Язык : Russian
Default : Да
Forced : Нет
Аудио #2
Идентификатор : 3
Формат : AC-3
Формат/Информация : Audio Coding 3
Расширение режима : CM (complete main)
Параметр Endianness формата : Big
Идентификатор кодека : A_AC3
Продолжительность : 1 ч. 27 м.
Вид битрейта : Постоянный
Битрейт : 192 Кбит/сек
Каналы : 2 канала
Расположение каналов : Front: L R
Частота : 48,0 КГц
Битовая глубина : 16 бит
Метод сжатия : С потерями
Размер потока : 120 Мбайт (1%)
Заголовок : rus / avo / Ryabov / AC3 / 2ch / 192Kbps
Язык : Russian
Default : Нет
Forced : Нет
Аудио #3
Идентификатор : 4
Формат : FLAC
Формат/Информация : Free Lossless Audio Codec
Идентификатор кодека : A_FLAC
Продолжительность : 1 ч. 27 м.
Вид битрейта : Переменный
Каналы : 2 канала
Частота : 48,0 КГц
Битовая глубина : 16 бит
Заголовок : original jap
Библиотека кодирования : libFLAC 20080709 (UTC 2008-07-09)
Язык : Japanese
Default : Нет
Forced : Нет
Текст #1
Идентификатор : 5
Формат : UTF-8
Идентификатор кодека : S_TEXT/UTF8
Идентификатор кодека/Информация : UTF-8 Plain Text
Заголовок : subtitle rus
Язык : Russian
Default : Нет
Forced : Нет
Текст #2
Идентификатор : 6
Формат : UTF-8
Идентификатор кодека : S_TEXT/UTF8
Идентификатор кодека/Информация : UTF-8 Plain Text
Заголовок : subtitle eng
Язык : English
Default : Нет
Forced : Нет
Меню
00:00:00.000 : :00:00:00.000
00:03:06.645 : :00:03:06.645
00:08:07.570 : :00:08:07.570
00:13:23.469 : :00:13:23.469
00:28:19.740 : :00:28:19.740
00:33:05.400 : :00:33:05.400
00:44:39.468 : :00:44:39.468
00:51:30.379 : :00:51:30.379
01:06:41.956 : :01:06:41.956
01:18:59.360 : :01:18:59.360

Скриншот с названием фильма

Скриншоты


x264 info

x264 [info]: using SAR=1/1
x264 [info]: using cpu capabilities: MMX2 SSE2Fast SSSE3 SSE4.2 AVX
x264 [info]: profile High, level 4.1
x264 [info]: frame I:580 Avg QP:15.24 size:219926
x264 [info]: frame P:22518 Avg QP:16.69 size:156283
x264 [info]: frame B:102324 Avg QP:18.76 size:117622
x264 [info]: consecutive B-frames: 0.9% 1.7% 3.8% 6.5% 13.1% 50.7% 6.9% 3.8% 2.6% 3.8% 2.4% 2.9% 0.8%
x264 [info]: mb I I16..4: 5.3% 88.1% 6.6%
x264 [info]: mb P I16..4: 1.0% 55.6% 1.2% P16..4: 12.2% 17.4% 8.1% 1.0% 0.0% skip: 3.6%
x264 [info]: mb B I16..4: 0.2% 18.4% 0.3% B16..8: 33.1% 27.6% 8.3% direct: 7.9% skip: 4.3% L0:47.3% L1:39.5% BI:13.3%
x264 [info]: 8x8 transform intra:97.0% inter:59.2%
x264 [info]: direct mvs spatial:97.6% temporal:2.4%
x264 [info]: coded y,uvDC,uvAC intra: 99.6% 0.0% 0.0% inter: 74.6% 0.0% 0.0%
x264 [info]: i16 v,h,dc,p: 4% 3% 52% 40%
x264 [info]: i8 v,h,dc,ddl,ddr,vr,hd,vl,hu: 11% 5% 32% 9% 9% 10% 7% 10% 8%
x264 [info]: i4 v,h,dc,ddl,ddr,vr,hd,vl,hu: 9% 5% 9% 12% 16% 15% 12% 12% 10%
x264 [info]: i8c dc,h,v,p: 54% 46% 0% 0%
x264 [info]: Weighted P-Frames: Y:45.6% UV:0.0%
x264 [info]: ref P L0: 38.5% 12.7% 19.3% 13.0% 10.8% 5.5% 0.2%
x264 [info]: ref B L0: 63.3% 25.7% 9.3% 1.8%
x264 [info]: ref B L1: 83.6% 16.4%
x264 [info]: kb/s:23983.02
x264 [total]: encoded 125422 frames, 4.14 fps, 23983.02 kb/s



Показать сообщения:    

Текущее время: 10-Дек 08:05

Часовой пояс: UTC + 3


Вы не можете начинать темы
Вы не можете отвечать на сообщения
Вы не можете редактировать свои сообщения
Вы не можете удалять свои сообщения
Вы не можете голосовать в опросах
Вы не можете прикреплять файлы к сообщениям
Вы не можете скачивать файлы