Приключение / L'avventura (Микеланджело Антониони / Michelangelo Antonioni) [1960, Италия, Франция, драма, BDRemux 1080p] [Criterion Collection] DVO + Sub (Rus, Eng) + Original Ita


 

[Цитировать]

Приключение / L'avventura
Страна: Италия, Франция
Жанр: драма
Год выпуска: 1960
Продолжительность: 02:23:06
Перевод: Профессиональный (двухголосый закадровый) Film Prestige
Cубтитры: русские, английские
Оригинальная аудиодорожка: итальянский-Режиссер: Микеланджело Антониони / Michelangelo Antonioni
В ролях: Габриэль Ферцетти, Моника Витти, Леа Массари, Доминик Бланшар, Ренцо Риччи, Джеймс Эддамс, Дороти Де Полиоло, Лелио Луттацци, Джованни Петруччи, Эсмеральда Русполи, Анджела Томмази Ди Лампедуза
Описание: Во время круиза изнывающие от скуки светские персонажи оказываются вовлечёнными в «приключение». Анна, дочь известного дипломата, исчезает среди бела дня на необитаемом острове. Поначалу спутники теряются в догадках относительно её судьбы, однако наметившаяся детективная интрига вскоре уступает место новым отношениям, которые пытаются выстроить любовник пропавшей женщины, Сандро, и её подруга Клаудия...
IMDb || КиноПоиск-Тип релиза: BDRemux 1080p [L'avventura 1960 1080p Blu-ray AVC LPCM 1.0-BeyondHD]
Контейнер: MKV
Видео: MPEG-4 AVC Video, 1920x1080 at 23.976 fps, 22246 kbps
Аудио#1: Russian: 48 kHz, AC3, 2.0 ch, 160 kbps
Аудио#2: Italian: 48 kHz, LPCM, 1.0 ch, 1152 kbps
Аудио#3: English: 48 kHz, AC3, 1.0 ch, 192 kbps |Commentary by film historian Gene Youngblood
Формат субтитров: softsub (SRT)
Сэмпл

MediaInfo

General
Unique ID : 214323550151042763084014492486820686743 (0xA13D36DC846F198D8E5599B53E8BEB97)
Complete name : I:\Приключение\L'avventura.1960.Criterion.BDRemux. rutracker.mkv
Format : Matroska
Format version : Version 2
File size : 23.7 GiB
Duration : 2h 23mn
Overall bit rate mode : Variable
Overall bit rate : 23.7 Mbps
Movie name : Release for RuTracker
Writing application : mkvmerge v5.0.1 ('Es ist Sommer') built on Nov 6 2011 16:23:40
Writing library : libebml v1.2.2 + libmatroska v1.3.0
Video
ID : 1
Format : AVC
Format/Info : Advanced Video Codec
Format profile : High@L4.1
Format settings, CABAC : Yes
Format settings, ReFrames : 4 frames
Codec ID : V_MPEG4/ISO/AVC
Duration : 2h 23mn
Bit rate mode : Variable
Maximum bit rate : 37.0 Mbps
Width : 1 920 pixels
Height : 1 080 pixels
Display aspect ratio : 16:9
Frame rate mode : Constant
Frame rate : 23.976 fps
Color space : YUV
Chroma subsampling : 4:2:0
Bit depth : 8 bits
Scan type : Progressive
Title : L'avventura.1960.Criterion.BDRemux. rutracker
Language : Italian
Default : Yes
Forced : No
Audio #1
ID : 2
Format : AC-3
Format/Info : Audio Coding 3
Mode extension : CM (complete main)
Format settings, Endianness : Big
Codec ID : A_AC3
Duration : 2h 23mn
Bit rate mode : Constant
Bit rate : 160 Kbps
Channel(s) : 2 channels
Channel positions : Front: L R
Sampling rate : 48.0 KHz
Bit depth : 16 bits
Compression mode : Lossy
Stream size : 164 MiB (1%)
Language : Russian
Default : Yes
Forced : No
Audio #2
ID : 3
Format : PCM
Codec ID : A_PCM/INT/LIT
Duration : 2h 23mn
Bit rate mode : Constant
Sampling rate : 48.0 KHz
Bit depth : 24 bits
Language : Italian
Default : No
Forced : No
Audio #3
ID : 4
Format : AC-3
Format/Info : Audio Coding 3
Mode extension : CM (complete main)
Format settings, Endianness : Big
Codec ID : A_AC3
Duration : 2h 23mn
Bit rate mode : Constant
Bit rate : 192 Kbps
Channel(s) : 1 channel
Channel positions : Front: C
Sampling rate : 48.0 KHz
Bit depth : 16 bits
Compression mode : Lossy
Stream size : 197 MiB (1%)
Title : commentary
Language : English
Default : No
Forced : No
Text #1
ID : 5
Format : UTF-8
Codec ID : S_TEXT/UTF8
Codec ID/Info : UTF-8 Plain Text
Language : Russian
Default : No
Forced : No
Text #2
ID : 6
Format : UTF-8
Codec ID : S_TEXT/UTF8
Codec ID/Info : UTF-8 Plain Text
Language : English
Default : No
Forced : No
Menu #1
00:00:00.000 : en:Opening Credits
00:02:20.515 : en:The Old and the New World
00:04:30.270 : en:"Good-Bye Cruise"
00:06:04.656 : en:"Let Her Wait"
00:10:18.910 : en:"Shall We Swim?"
00:14:58.356 : en:"Shark!"
00:18:05.584 : en:"Which Shall I Wear?"
00:20:39.530 : en:"There's No Spark"
00:22:42.778 : en:"I Don't Feel You Anymore"
00:26:01.852 : en:"And Anna?"
00:37:52.729 : en:The Storm
00:42:08.985 : en:"You Love Anna"
00:48:58.435 : en:"An Ancient Vase"
00:53:03.722 : en:"Here's Anna's Father"
00:56:44.735 : en:"I'll Join You at the Montaldos"
00:59:48.585 : en:"And the Other Boat?"
01:02:48.556 : en:"When Will We See Each Other, Then?"
01:06:04.127 : en:"Come Away with Me"
01:11:20.109 : en:"My Name Is Gloria Perkins"
01:15:32.027 : en:"A Lovely Clinic for Nervous Disorders"
01:17:37.486 : en:"How Does It Look?"
01:20:16.061 : en:"I'd Make You a Beautiful Portrait"
01:25:08.312 : en:"I'm Not Coming"
01:27:18.108 : en:"Picture of Marital Bliss"
01:31:32.779 : en:"It's Not a Town, It's a Cemetery"
01:38:06.756 : en:"A Can of Paint"
01:42:32.897 : en:"Shall We Get Married?"
01:46:55.451 : en:"I Was Twenty-Three Once"
01:53:13.412 : en:"I Feel as Thought I Don't Know You"
01:56:55.175 : en:"A Sensible Childhood"
02:01:11.014 : en:"I'm Too Sleepy"
02:06:57.151 : en:"One... Two... Three..."
02:12:57.136 : en:"I'm Afraid Anna's Back"
02:16:04.865 : en:"A Small Souvenir"
02:18:29.218 : en:Conclusion
Menu #2
00:00:00.054 : en:00:00:00.054

Скриншоты




Показать сообщения:    

Текущее время: 05-Дек 13:34

Часовой пояс: UTC + 3


Вы не можете начинать темы
Вы не можете отвечать на сообщения
Вы не можете редактировать свои сообщения
Вы не можете удалять свои сообщения
Вы не можете голосовать в опросах
Вы не можете прикреплять файлы к сообщениям
Вы не можете скачивать файлы