Виридиана / Viridiana (Луис Бунюэль / Luis Bunuel) [1961, Испания, Мексика, драма, BDRip 720p] 2х MVO + VO + Sub Rus, Eng + Original Spa


 

[Цитировать]

Виридиана / Viridiana
Страна: Испания, Мексика
Студия: Films 59, Gustavo Alatriste, Unión Industrial Cinematográfica
Жанр: драма
Год выпуска: 1961
Продолжительность: 01:31:24
Перевод: Профессиональный (многоголосый закадровый) Cinema Prestige
Перевод 2: Профессиональный (многоголосый закадровый) Культура
Перевод 3: Одноголосый закадровый В. Огородников
Cубтитры: русские (2 вида), английские
Оригинальная аудиодорожка: испанский
Режиссер: Луис Бунюэль / Luis Bunuel
В ролях: Сильвия Пиналь, Фернандо Рей, Франсиско Рабаль, Хосе Кальво, Маргарита Лосано, Хосе Мануэль Мартин, Виктория Дзинни, Лола Гаос, Тереза Рабаль, Луис Эредиа
Описание: По мотивам романа Бенито Переса Гальдоса «Альма».
Виридиана, прежде чем постричься в монахини, навещает своего дядю, богатого землевладельца. Ошеломленный ее сходством с погибшей женой, он решает изнасиловать Виридиану, но в последний момент раскаивается. В порыве угрызений совестью он кончает жизнь самоубийством, оставляя свое состояние племяннице и внебрачному сыну. Виридиана желает на эти деньги усовершенствовать мир, но ее милосердие оборачивается несчастьем...

Sample
Тип релиза: BDRip 720p - EA
Контейнер: MKV
Видео: MPEG4 AVC Video, H264, 16:9, 1280x720, 24 fps, 7785 kbps
Аудио: Russian (AC3, 2 ch, 192 kbps, 16 bits, 48.0 KHz) - Cinema Prestige
Аудио 2: Russian (AC3, 1 ch, 192 kbps, 16 bits, 48.0 KHz) - Культура
Аудио 3: Russian (AC3, 1 ch, 96 kbps, 16 bits, 48.0 KHz) - В. Огородников
Аудио 4: Spanish (FLAC, 2 ch, 421 kbps, 16 bits, 48.0 KHz) - оригинал
Формат субтитров: softsub (SRT)

MediaInfo

General
Unique ID : 236035234605977475749433945189965931468 (0xB192BB8D5D7E0B52B0B45CAEEF5CA3CC)
Complete name : E:\1\Viridiana 1961 BDRip 720p-EA.mkv
Format : Matroska
Format version : Version 4 / Version 2
File size : 5.55 GiB
Duration : 1h 31mn
Overall bit rate mode : Variable
Overall bit rate : 8 689 Kbps
Encoded date : UTC 2015-01-13 05:41:25
Writing application : mkvmerge v6.1.0 ('Old Devil') built on Mar 2 2013 14:32:37
Writing library : libebml v1.3.0 + libmatroska v1.4.0
Video
ID : 1
Format : AVC
Format/Info : Advanced Video Codec
Format profile : High@L4.1
Format settings, CABAC : Yes
Format settings, ReFrames : 9 frames
Codec ID : V_MPEG4/ISO/AVC
Duration : 1h 31mn
Width : 1 280 pixels
Height : 720 pixels
Display aspect ratio : 16:9
Frame rate mode : Constant
Frame rate : 24.000 fps
Color space : YUV
Chroma subsampling : 4:2:0
Bit depth : 8 bits
Scan type : Progressive
Writing library : x264 core 144 r0+2574 9abcd72 t_mod_Custom [8-bit@all X86_64]
Encoding settings : cabac=1 / ref=9 / deblock=1:-3:-3 / analyse=0x3:0x113 / me=umh / subme=10 / psy=1 / fade_compensate=0.00 / psy_rd=1.10:0.00 / mixed_ref=1 / me_range=32 / chroma_me=0 / trellis=2 / 8x8dct=1 / cqm=0 / deadzone=21,11 / fast_pskip=0 / chroma_qp_offset=-2 / threads=12 / lookahead_threads=2 / sliced_threads=0 / nr=0 / decimate=0 / interlaced=0 / bluray_compat=0 / constrained_intra=0 / fgo=0 / bframes=8 / b_pyramid=2 / b_adapt=2 / b_bias=0 / direct=3 / weightb=1 / open_gop=0 / weightp=2 / keyint=240 / keyint_min=24 / scenecut=40 / intra_refresh=0 / rc_lookahead=50 / rc=crf / mbtree=0 / crf=18.8000 / qcomp=0.75 / qpmin=0:0:0 / qpmax=69:69:69 / qpstep=4 / vbv_maxrate=62500 / vbv_bufsize=78125 / crf_max=0.0 / nal_hrd=none / filler=0 / ip_ratio=1.20 / pb_ratio=1.10 / aq=1:0.55 / aq-sensitivity=10.00 / aq-factor=1.00:1.00:1.00 / aq2=1:0.45 / aq2-sensitivity=15.00 / aq2-factor=1.00:1.00:1.00 / aq3=0
Language : Spanish
Default : Yes
Forced : No
Color primaries : BT.709
Transfer characteristics : BT.709
Matrix coefficients : BT.709
Audio #1
ID : 2
Format : AC-3
Format/Info : Audio Coding 3
Mode extension : CM (complete main)
Format settings, Endianness : Big
Codec ID : A_AC3
Duration : 1h 31mn
Bit rate mode : Constant
Bit rate : 192 Kbps
Channel count : 2 channels
Channel positions : Front: L R
Sampling rate : 48.0 KHz
Bit depth : 16 bits
Compression mode : Lossy
Stream size : 126 MiB (2%)
Title : Cinema Prestige
Language : Russian
Default : Yes
Forced : No
Audio #2
ID : 3
Format : AC-3
Format/Info : Audio Coding 3
Mode extension : CM (complete main)
Format settings, Endianness : Big
Codec ID : A_AC3
Duration : 1h 31mn
Bit rate mode : Constant
Bit rate : 192 Kbps
Channel count : 1 channel
Channel positions : Front: C
Sampling rate : 48.0 KHz
Bit depth : 16 bits
Compression mode : Lossy
Stream size : 126 MiB (2%)
Title : Культура
Language : Russian
Default : No
Forced : No
Audio #3
ID : 4
Format : AC-3
Format/Info : Audio Coding 3
Mode extension : CM (complete main)
Format settings, Endianness : Big
Codec ID : A_AC3
Duration : 1h 31mn
Bit rate mode : Constant
Bit rate : 96.0 Kbps
Channel count : 1 channel
Channel positions : Front: C
Sampling rate : 48.0 KHz
Bit depth : 16 bits
Compression mode : Lossy
Stream size : 62.8 MiB (1%)
Title : В.Огородников
Language : Russian
Default : No
Forced : No
Audio #4
ID : 5
Format : FLAC
Format/Info : Free Lossless Audio Codec
Codec ID : A_FLAC
Duration : 1h 31mn
Bit rate mode : Variable
Channel count : 2 channels
Sampling rate : 48.0 KHz
Bit depth : 16 bits
Writing library : libFLAC 1.2.1 (UTC 2007-09-17)
Language : Spanish
Default : No
Forced : No
Text #1
ID : 6
Format : UTF-8
Codec ID : S_TEXT/UTF8
Codec ID/Info : UTF-8 Plain Text
Title : Cinema Prestige
Language : Russian
Default : No
Forced : No
Text #2
ID : 7
Format : UTF-8
Codec ID : S_TEXT/UTF8
Codec ID/Info : UTF-8 Plain Text
Language : Russian
Default : No
Forced : No
Text #3
ID : 8
Format : UTF-8
Codec ID : S_TEXT/UTF8
Codec ID/Info : UTF-8 Plain Text
Language : English
Default : No
Forced : No
Menu
00:00:00.000 : :1
00:08:41.000 : :2
00:18:16.240 : :3
00:27:11.000 : :4
00:35:51.000 : :5
00:45:14.480 : :6
00:55:36.239 : :7
01:02:28.000 : :8
01:11:16.240 : :9
01:21:37.000 : :10
01:31:09.000 : :11

Скриншоты

Source vs Encode



Показать сообщения:    

Текущее время: 11-Дек 07:09

Часовой пояс: UTC + 3


Вы не можете начинать темы
Вы не можете отвечать на сообщения
Вы не можете редактировать свои сообщения
Вы не можете удалять свои сообщения
Вы не можете голосовать в опросах
Вы не можете прикреплять файлы к сообщениям
Вы не можете скачивать файлы