Белая птица в метели / White Bird in a Blizzard (Грегг Араки / Gregg Araki) [2014, Франция, США, триллер, драма, BDRip 720p] VO (Doctor Joker) + Sub Eng + Original Eng


 

[Цитировать]

Белая птица в метели / White Bird in a Blizzard Страна: Франция, США
Студия: Desperate Pictures, Orange Studio, Why Not Productions, Wild Bunch
Жанр: триллер, драма
Год выпуска: 2014
Продолжительность: 01:31:17
Перевод: Одноголосый (закадровый) Матвеев (Doctor Joker)
Cубтитры: английские ( SDH)
Оригинальная аудиодорожка: английский
Режиссер: Грегг Араки / Gregg Araki
В ролях: Шейлин Вудли, Ева Грин, Кристофер Мелони, Шайло Фернандес, Габури Сидибе, Томас Джейн, Анджела Бассетт, Шерил Ли, Дейл Дикки, Марк Инделикато
Описание: Жизнь молодой женщины превращается в хаос, когда исчезает её мать.


Тип релиза: BDRip 720p [HDAccess]
Контейнер: MKV
Видео: AVC, 1280x544, 5200 kbps, 23.976 fps
Аудио 1: Russian: 48 kHz, AC3, 3/2 (L,C,R,l,r) + LFE ch, ~640.00 kbps |Матвеев|
Аудио 2: English: 48 kHz, AC3, 3/2 (L,C,R,l,r) + LFE ch, ~640.00 kbps avg |Original|
Чаптеры: есть

x264 log

x264 info: frame I:839 Avg QP:14.06 size:131954
x264 info: frame P:24269 Avg QP:15.56 size: 49944
x264 info: frame B:106215 Avg QP:16.57 size: 21812
x264 info: consecutive B-frames: 1.1% 1.2% 4.3% 8.7% 12.1% 53.8% 8.6% 3.8% 6.3

Доп.информация

За дорогу Doctor Joker спасибо:будулайроманов

MediaInfo

General
Unique ID : 210050653927572365799343397785407786481 (0x9E0648CFFE3D5684BDCC5D66571F0DF1)
Complete name : D:\White.Bird.in.a.Blizzard.2014.720p.Bluray.DD5.1.x264-Talian-.mkv
Format : Matroska
Format version : Version 2
File size : 4.21 GiB
Duration : 1h 31mn
Overall bit rate : 6 598 Kbps
Movie name : White Bird in a Blizzard-Talian-
Encoded date : UTC 2015-01-11 07:28:58
Writing application : mkvmerge v5.7.0 ('The Whirlwind') built on Jul 8 2012 20:08:51
Writing library : libebml v1.2.3 + libmatroska v1.3.0
Video
ID : 1
Format : AVC
Format/Info : Advanced Video Codec
Format profile : High@L4.1
Format settings, CABAC : Yes
Format settings, ReFrames : 12 frames
Codec ID : V_MPEG4/ISO/AVC
Duration : 1h 31mn
Bit rate : 5 187 Kbps
Width : 1 280 pixels
Height : 544 pixels
Display aspect ratio : 2.35:1
Frame rate : 23.976 fps
Color space : YUV
Chroma subsampling : 4:2:0
Bit depth : 8 bits
Scan type : Progressive
Bits/(Pixel*Frame) : 0.311
Stream size : 3.31 GiB (79%)
Title : HDAccess
Writing library : x264 core 142 r2479 dd79a61
Encoding settings : cabac=1 / ref=12 / deblock=1:-3:-3 / analyse=0x3:0x113 / me=tesa / subme=10 / psy=1 / psy_rd=1.10:0.00 / mixed_ref=1 / me_range=24 / chroma_me=1 / trellis=2 / 8x8dct=1 / cqm=0 / deadzone=21,11 / fast_pskip=0 / chroma_qp_offset=-2 / threads=18 / lookahead_threads=3 / sliced_threads=0 / nr=0 / decimate=0 / interlaced=0 / bluray_compat=0 / constrained_intra=0 / bframes=8 / b_pyramid=2 / b_adapt=2 / b_bias=0 / direct=3 / weightb=1 / open_gop=0 / weightp=2 / keyint=250 / keyint_min=23 / scenecut=40 / intra_refresh=0 / rc_lookahead=40 / rc=crf / mbtree=0 / crf=16.7 / qcomp=0.65 / qpmin=0 / qpmax=69 / qpstep=4 / vbv_maxrate=62500 / vbv_bufsize=78125 / crf_max=0.0 / nal_hrd=none / filler=0 / ip_ratio=1.30 / pb_ratio=1.20 / aq=2:1.00
Language : English
Default : Yes
Forced : No
Audio #1
ID : 2
Format : AC-3
Format/Info : Audio Coding 3
Mode extension : CM (complete main)
Format settings, Endianness : Big
Codec ID : A_AC3
Duration : 1h 31mn
Bit rate mode : Constant
Bit rate : 640 Kbps
Channel(s) : 6 channels
Channel positions : Front: L C R, Side: L R, LFE
Sampling rate : 48.0 KHz
Bit depth : 16 bits
Compression mode : Lossy
Stream size : 418 MiB (10%)
Title : VO-Doctor Joker
Language : Russian
Default : Yes
Forced : No
Audio #2
ID : 3
Format : AC-3
Format/Info : Audio Coding 3
Mode extension : CM (complete main)
Format settings, Endianness : Big
Codec ID : A_AC3
Duration : 1h 31mn
Bit rate mode : Constant
Bit rate : 640 Kbps
Channel(s) : 6 channels
Channel positions : Front: L C R, Side: L R, LFE
Sampling rate : 48.0 KHz
Bit depth : 16 bits
Compression mode : Lossy
Stream size : 418 MiB (10%)
Title : Original
Language : English
Default : No
Forced : No
Text
ID : 4
Format : UTF-8
Codec ID : S_TEXT/UTF8
Codec ID/Info : UTF-8 Plain Text
Title : Sub-SDH
Language : English
Default : No
Forced : No
Menu
00:00:00.000 : en:00:00:00.000
00:08:13.410 : en:00:08:13.410
00:13:16.671 : en:00:13:16.671
00:20:27.059 : en:00:20:27.059
00:31:50.992 : en:00:31:50.992
00:42:45.897 : en:00:42:45.897
00:48:44.130 : en:00:48:44.130
00:59:53.882 : en:00:59:53.882
01:06:55.303 : en:01:06:55.303
01:17:00.074 : en:01:17:00.074
01:22:24.273 : en:01:22:24.273
01:28:51.910 : en:01:28:51.910

Скриншоты

Source vs Encode





Показать сообщения:    

Текущее время: 04-Дек 02:54

Часовой пояс: UTC + 3


Вы не можете начинать темы
Вы не можете отвечать на сообщения
Вы не можете редактировать свои сообщения
Вы не можете удалять свои сообщения
Вы не можете голосовать в опросах
Вы не можете прикреплять файлы к сообщениям
Вы не можете скачивать файлы