Премьера / Opening Night (Джон Кассаветис / John Cassavetes) [1977, США, драма, BDRemux 1080p] [Criterion Collection] 2x DVO + AVO (Кузнецов) + Sub Eng + Original Eng


 

[Цитировать]

Премьера / Opening Night
Страна: США
Жанр: драма
Год выпуска: 1977
Продолжительность: 02:24:23
Перевод: Профессиональный (двухголосый закадровый) | ТК "Культура"
Перевод: Профессиональный (двухголосый закадровый)
Перевод: Авторский (одноголосый закадровый) | Сергей Кузнецов
Cубтитры: английские
Оригинальная аудиодорожка: английский-Режиссер: Джон Кассаветис / John Cassavetes
В ролях: Джина Роулендс, Джон Кассаветис, Бен Газзара, Джоэн Блонделл, Пол Стюарт, Зора Ламперт, Лаура Джонсон, Джон Тьюэлл, Кэтрин Кассаветес, Леди Роуландс, Миде Робертс, Джон Финнегэн
Описание: Драма стареющей бродвейской звезды, сильно пьющей и впадающей в депрессию после гибели одной из ее поклонниц. Происшествие потрясает её до самых глубин, она переживает сильнейший эмоциональный кризис. Её психологическое состояние мешает планомерным репетициям, что ставит под угрозу премьеру новой пьесы...
IMDb || КиноПоиск-Тип релиза: BDRemux 1080p [Opening Night 1977 1080p Blu-ray AVC LPCM 1.0 (thx violator99)]
Контейнер: MKV
Видео: MPEG-4 AVC Video, 1920x1080 at 23.976 fps, 31987 kbps
Аудио#1: Russian: 48 kHz, AC3, 2.0 ch, 192 kbps |Двухголосый закадровый, ТК "Культура"|
Аудио#2: Russian: 48 kHz, AC3, 2.0 ch, 192 kbps |Двухголосый закадровый|
Аудио#3: Russian: 48 kHz, AC3, 2.0 ch, 192 kbps |Авторский одноголосый закадровый, С.Кузнецов|
Аудио#4: English: 48 kHz, LPCM 1.0, 1152 kbps
Формат субтитров: softsub (SRT)
Сэмпл

MediaInfo

General
Unique ID : 239679916888464388392859179691408047955 (0xB450AC4332EABC559A9511F9DC3B3F53)
Complete name : O:\Рутрекер\Премьера\Opening Night.1977.CC.BDRemux.mkv
Format : Matroska
Format version : Version 2
File size : 33.9 GiB
Duration : 2h 24mn
Overall bit rate mode : Variable
Overall bit rate : 33.6 Mbps
Movie name :
Encoded date : UTC 2013-11-12 17:26:41
Writing application : mkvmerge v5.0.1 ('Es ist Sommer') built on Nov 6 2011 16:23:40
Writing library : libebml v1.2.2 + libmatroska v1.3.0
Video
ID : 1
Format : AVC
Format/Info : Advanced Video Codec
Format profile : High@L4.1
Format settings, CABAC : Yes
Format settings, ReFrames : 4 frames
Codec ID : V_MPEG4/ISO/AVC
Duration : 2h 24mn
Bit rate mode : Variable
Maximum bit rate : 37.0 Mbps
Width : 1 920 pixels
Height : 1 080 pixels
Display aspect ratio : 16:9
Frame rate : 23.976 fps
Color space : YUV
Chroma subsampling : 4:2:0
Bit depth : 8 bits
Scan type : Progressive
Title : Opening Night.1977.CC.BDRemux.
Language : English
Default : Yes
Forced : No
Audio #1
ID : 2
Format : AC-3
Format/Info : Audio Coding 3
Mode extension : CM (complete main)
Codec ID : A_AC3
Duration : 2h 24mn
Bit rate mode : Constant
Bit rate : 192 Kbps
Channel(s) : 2 channels
Channel positions : Front: L R
Sampling rate : 48.0 KHz
Bit depth : 16 bits
Compression mode : Lossy
Stream size : 198 MiB (1%)
Title : dvo |Культура|
Language : Russian
Default : Yes
Forced : No
Audio #2
ID : 3
Format : AC-3
Format/Info : Audio Coding 3
Mode extension : CM (complete main)
Codec ID : A_AC3
Duration : 2h 24mn
Bit rate mode : Constant
Bit rate : 192 Kbps
Channel(s) : 2 channels
Channel positions : Front: L R
Sampling rate : 48.0 KHz
Bit depth : 16 bits
Compression mode : Lossy
Stream size : 198 MiB (1%)
Title : dvo
Language : Russian
Default : No
Forced : No
Audio #3
ID : 4
Format : AC-3
Format/Info : Audio Coding 3
Mode extension : CM (complete main)
Codec ID : A_AC3
Duration : 2h 24mn
Bit rate mode : Constant
Bit rate : 192 Kbps
Channel(s) : 2 channels
Channel positions : Front: L R
Sampling rate : 48.0 KHz
Bit depth : 16 bits
Compression mode : Lossy
Stream size : 198 MiB (1%)
Title : avo |Кузнецов|
Language : Russian
Default : No
Forced : No
Audio #4
ID : 5
Format : PCM
Codec ID : A_PCM/INT/LIT
Duration : 2h 24mn
Bit rate mode : Constant
Sampling rate : 48.0 KHz
Bit depth : 24 bits
Language : English
Default : No
Forced : No
Text
ID : 6
Format : UTF-8
Codec ID : S_TEXT/UTF8
Codec ID/Info : UTF-8 Plain Text
Language : English
Default : No
Forced : No
Menu
00:00:00.000 : :Chapter 01
00:03:37.508 : :Chapter 02
00:08:27.215 : :Chapter 03
00:14:21.986 : :Chapter 04
00:20:08.999 : :Chapter 05
00:28:20.073 : :Chapter 06
00:33:03.731 : :Chapter 07
00:37:00.551 : :Chapter 08
00:39:33.454 : :Chapter 09
00:43:56.592 : :Chapter 10
00:49:37.683 : :Chapter 11
00:56:54.119 : :Chapter 12
01:03:02.487 : :Chapter 13
01:06:25.147 : :Chapter 14
01:13:16.767 : :Chapter 15
01:17:30.228 : :Chapter 16
01:22:25.482 : :Chapter 17
01:28:43.234 : :Chapter 18
01:31:38.910 : :Chapter 19
01:35:02.863 : :Chapter 20
01:39:01.185 : :Chapter 21
01:44:19.711 : :Chapter 22
01:49:45.036 : :Chapter 23
01:56:36.114 : :Chapter 24
02:03:21.185 : :Chapter 25
02:08:07.137 : :Chapter 26
02:19:32.697 : :Chapter 27
02:24:22.362 : :Chapter 28

Скриншоты

BFI vs Criterion



Показать сообщения:    

Текущее время: 11-Дек 07:14

Часовой пояс: UTC + 3


Вы не можете начинать темы
Вы не можете отвечать на сообщения
Вы не можете редактировать свои сообщения
Вы не можете удалять свои сообщения
Вы не можете голосовать в опросах
Вы не можете прикреплять файлы к сообщениям
Вы не можете скачивать файлы