Теорема Зеро / The Zero Theorem (Терри Гиллиам / Terry Gilliam) [2013, Великобритания, Румыния, Франция, США, фантастика, триллер, драма, BDRip 720p] Dub + AVO (Сербин) + Sub Rus, Eng + Original Eng


 

[Цитировать]

Теорема Зеро / The Zero Theorem-«Nothing is everything»-Год выпуска: 2013
Страна: Великобритания, Румыния, Франция, США
Жанр: фантастика, триллер, драма, комедия
Продолжительность: 01:46:27
Перевод:
|Профессиональный (полное дублирование),
Авторский (одноголосый закадровый) Юрий Сербин|

Субтитры: русские, английские
Оригинальная аудиодорожка: английский
-Режиссер: Терри Гиллиам / Terry Gilliam-В ролях: Кристоф Вальц (Qohen Leth), Гвендолин Кристи (Woman in a Street Commercial), Руперт Френд(Man in Street Commercial), Рэй Купер (Man in Street Commercial), Лили Коул (Woman in Street Commercial), Дэвид Тьюлис (Joby), Санджив Бхаскар (Doctor), Петер Стормаре (Doctor), Бен Уишоу (Doctor), Мелани Тьерри (Bainsley), Мэтт Дэймон (Management), Лукас Хеджес (Bob)-Описание:
Эксцентричный компьютерный гений Коэн Лет бьется над неразрешимой теоремой. Благодаря костюму для виртуальной реальности, изобретенному мальчиком Бобом, Лету удается совершить путешествие в скрытое пространство и узнать тайну своей души. Эту разгадку ищет не только он сам, но и таинственный Менеджмент, который правит всем миром посредством всевидящих устройств под названием ManCams.
-Рейтинг
Венецианский кинофестиваль, 2013 год Номинации:
Золотой лев

MPAA: R - Лицам до 17 лет обязательно присутствие взрослого
-Качество: BDRip 720p|Исходник: Blu-ray AVC DTS-HD MA 5.1-ESiR
Формат: MKV
Видео кодек: AVC
Аудио кодек: AC3, DTS
Видео: AVC, 1280x692 (1.850), 6721 kbps, 23,976 fps, 0,316 bpp
Аудио №1: русский / AC3 / 5.1 / 48 kHz / 384 kbps / 16 bit |Дубляж, R5|
Аудио №2: русский / AC3 / 5.1 / 48 kHz / 384 kbps / 16 bit |AVO Ю.Сербин|
Аудио №3: английский / DTS / 5.1 / 48 kHz / 1510 kbps / 16 bit
-Оформление: Messa-fan
Encode by Messa-fan

MI + x264 log

x264 [info]: frame I:1076  Avg QP:15.17  size:163748
x264 [info]: frame P:33426 Avg QP:17.59  size: 66155
x264 [info]: frame B:118644 Avg QP:20.16  size: 25071
x264 [info]: consecutive B-frames:  1.9%  2.9%  5.4% 29.3% 16.9% 27.6%  6.7%  6.6%  1.1%  0.3%  0.4%  0.8%
General
Unique ID                                : 177073994096702743029278077711678723033 (0x853735F46339C8099A5DBBC4AF4453D9)
Complete name                            : The.Zero.Theorem.2013.BDRip.720p.2xRus.Eng.Sub.mkv
Format                                   : Matroska
Format version                           : Version 4 / Version 2
File size                                : 6.69 GiB
Duration                                 : 1h 46mn
Overall bit rate                         : 8 996 Kbps
Movie name                               : The Zero Theorem (2013) BDRip 720p by messafan
Encoded date                             : UTC 2015-01-05 02:13:48
Writing application                      : mkvmerge v6.7.0 ('Back to the Ground') 64bit built on Jan  8 2014 15:10:52
Writing library                          : libebml v1.3.0 + libmatroska v1.4.1
Video
ID                                       : 1
Format                                   : AVC
Format/Info                              : Advanced Video Codec
Format profile                           : High@L4.1
Format settings, CABAC                   : Yes
Format settings, ReFrames                : 9 frames
Codec ID                                 : V_MPEG4/ISO/AVC
Duration                                 : 1h 46mn
Bit rate                                 : 6 721 Kbps
Width                                    : 1 280 pixels
Height                                   : 692 pixels
Display aspect ratio                     : 1.850
Frame rate                               : 23.976 fps
Color space                              : YUV
Chroma subsampling                       : 4:2:0
Bit depth                                : 8 bits
Scan type                                : Progressive
Bits/(Pixel*Frame)                       : 0.316
Stream size                              : 4.86 GiB (73%)
Title                                    : The Zero Theorem (2013) BDRip 720p by messafan
Writing library                          : x264 core 142 r2479kMod dd79a61
Encoding settings                        : cabac=1 / ref=9 / deblock=1:-3:-3 / analyse=0x3:0x113 / me=umh / subme=10 / psy=1 / fade_compensate=0.00 / psy_rd=1.00:0.00 / mixed_ref=1 / me_range=32 / chroma_me=1 / trellis=2 / 8x8dct=1 / cqm=0 / deadzone=21,11 / fast_pskip=0 / chroma_qp_offset=-4 / threads=6 / lookahead_threads=1 / sliced_threads=0 / nr=0 / decimate=1 / interlaced=0 / bluray_compat=0 / constrained_intra=0 / fgo=0 / bframes=11 / b_pyramid=2 / b_adapt=2 / b_bias=0 / direct=3 / weightb=1 / open_gop=0 / weightp=1 / keyint=240 / keyint_min=23 / scenecut=40 / intra_refresh=0 / rc_lookahead=60 / rc=2pass / mbtree=1 / bitrate=6721 / ratetol=1.0 / qcomp=0.70 / qpmin=0 / qpmax=69 / qpstep=4 / cplxblur=20.0 / qblur=0.5 / vbv_maxrate=50000 / vbv_bufsize=62500 / nal_hrd=none / filler=0 / ip_ratio=1.30 / aq=1:0.70
Language                                 : English
Default                                  : Yes
Forced                                   : No
Audio #1
ID                                       : 2
Format                                   : AC-3
Format/Info                              : Audio Coding 3
Mode extension                           : CM (complete main)
Codec ID                                 : A_AC3
Duration                                 : 1h 46mn
Bit rate mode                            : Constant
Bit rate                                 : 384 Kbps
Channel(s)                               : 6 channels
Channel positions                        : Front: L C R, Side: L R, LFE
Sampling rate                            : 48.0 KHz
Bit depth                                : 16 bits
Compression mode                         : Lossy
Stream size                              : 292 MiB (4%)
Title                                    : DUB (R5)
Language                                 : Russian
Default                                  : Yes
Forced                                   : No
Audio #2
ID                                       : 3
Format                                   : AC-3
Format/Info                              : Audio Coding 3
Mode extension                           : CM (complete main)
Codec ID                                 : A_AC3
Duration                                 : 1h 46mn
Bit rate mode                            : Constant
Bit rate                                 : 384 Kbps
Channel(s)                               : 6 channels
Channel positions                        : Front: L C R, Side: L R, LFE
Sampling rate                            : 48.0 KHz
Bit depth                                : 16 bits
Compression mode                         : Lossy
Stream size                              : 292 MiB (4%)
Title                                    : AVO Serbin
Language                                 : Russian
Default                                  : No
Forced                                   : No
Audio #3
ID                                       : 4
Format                                   : DTS
Format/Info                              : Digital Theater Systems
Codec ID                                 : A_DTS
Duration                                 : 1h 46mn
Bit rate mode                            : Constant
Bit rate                                 : 1 510 Kbps
Channel(s)                               : 6 channels
Channel positions                        : Front: L C R, Side: L R, LFE
Sampling rate                            : 48.0 KHz
Bit depth                                : 16 bits
Compression mode                         : Lossy
Stream size                              : 1.12 GiB (17%)
Title                                    : English
Language                                 : English
Default                                  : No
Forced                                   : No
Text #1
ID                                       : 5
Format                                   : UTF-8
Codec ID                                 : S_TEXT/UTF8
Codec ID/Info                            : UTF-8 Plain Text
Language                                 : Russian
Default                                  : No
Forced                                   : No
Text #2
ID                                       : 6
Format                                   : UTF-8
Codec ID                                 : S_TEXT/UTF8
Codec ID/Info                            : UTF-8 Plain Text
Language                                 : English
Default                                  : No
Forced                                   : No
Menu
00:00:00.000                             : :Chapter 01
00:05:37.962                             : :Chapter 02
00:12:46.474                             : :Chapter 03
00:20:42.032                             : :Chapter 04
00:26:03.478                             : :Chapter 05
00:34:39.118                             : :Chapter 06
00:38:38.274                             : :Chapter 07
00:43:15.759                             : :Chapter 08
00:47:40.899                             : :Chapter 09
00:55:51.556                             : :Chapter 10
01:00:55.109                             : :Chapter 11
01:05:50.613                             : :Chapter 12
01:15:47.459                             : :Chapter 13
01:25:13.441                             : :Chapter 14
01:32:21.536                             : :Chapter 15
01:38:55.930                             : :Chapter 16
01:46:27.255                             : :Chapter 17

Скриншоты

Source vs Encode





-
-
-

-
-



Показать сообщения:    

Текущее время: 03-Дек 12:40

Часовой пояс: UTC + 3


Вы не можете начинать темы
Вы не можете отвечать на сообщения
Вы не можете редактировать свои сообщения
Вы не можете удалять свои сообщения
Вы не можете голосовать в опросах
Вы не можете прикреплять файлы к сообщениям
Вы не можете скачивать файлы