Вальс для Моники / Monica Z / Waltz for Monica (Пер Флю / Per Fly) [2013, Швеция, драма, биография, музыка, BDRip 720p] MVO (Позитив) + Original Swe + Sub (Rus, Eng, Swe, Fin, Nor)


 

[Цитировать]

Вальс для Моники / Monica Z / Waltz for Monica Страна: Швеция
Жанр: драма, биография, музыка
Год выпуска: 2013
Продолжительность: 01:51:31
Перевод: Профессиональный (многоголосый закадровый) студия Позитив
Cубтитры: английские (fansub), русские (Елена Володина), шведские (полные, форсированные), финские, норвежские
Оригинальная аудиодорожка: шведский
Режиссер: Пер Флю / Per Fly
В ролях: Эдда Магнасон, Сверрир Гуднасон, Кьель Бергквист, Вера Витали, Оскар Тунберг, Johannes Wanselow, Надя Христианссон, David Hellenius, Сесилия Юнг, Фредрик Линдборг
Описание:
Моника, девушка из маленького шведского городка, мечтала о ярких огнях джазовых ночных клубов. И ее мечта сбылась — она стала известной певицей и актрисой золотой эпохи джаза. Поклонники боготворят ее, но глубоко внутри она несчастна. За ней шлейфом тянутся разбитые сердца и невыполненные обещания. Утро Моника встречает в одиночестве, с коктейлем в руке, и осознает, что назад пути нет.
- -Тип релиза: BDRip 720p (рип от HPotter@SbR)

Контейнер: MKV
Видео: AVC (x264), 1280x536 (2,40:1) at 24,000 fps, 6331 Кbps, 0.385 bpp
Аудио 1: AC3; 256 Kbps; CBR; 2 ch; 48 khz | MVO - Позитив |
Аудио 2: AC3; 640 Kbps; CBR; 6 ch; 48 khz | Шведский |
Формат субтитров: softsub (SRT); softsub (ASS/SSA)

Скриншоты || x264 Info || MediaInfo || NotesMediaInfo

General
Unique ID                                : 233806768413430228184808272951688170980 (0xAFE58BAFA3811942B476E484E34E0DE4)
Complete name                            : Вальс для Моники.2013.MVO.720p.BluRay.x264-SbR.mkv
Format                                   : Matroska
Format version                           : Version 4 / Version 2
File size                                : 5.74 GiB
Duration                                 : 1h 51mn
Overall bit rate                         : 7 374 Kbps
Movie name                               : Waltz for Monica [2014] [720p] MVO
Encoded date                             : UTC 2015-01-05 12:27:57
Writing application                      : mkvmerge v7.4.0 ('Circles') 32bit built on Dec 12 2014 12:10:09
Writing library                          : libebml v1.3.0 + libmatroska v1.4.1
Attachements                             : tahoma.ttf / tahomabd.ttf
Video
ID                                       : 1
Format                                   : AVC
Format/Info                              : Advanced Video Codec
Format profile                           : High@L4.1
Format settings, CABAC                   : Yes
Format settings, ReFrames                : 9 frames
Codec ID                                 : V_MPEG4/ISO/AVC
Duration                                 : 1h 51mn
Bit rate                                 : 6 331 Kbps
Width                                    : 1 280 pixels
Height                                   : 536 pixels
Display aspect ratio                     : 2.40:1
Frame rate mode                          : Constant
Frame rate                               : 24.000 fps
Color space                              : YUV
Chroma subsampling                       : 4:2:0
Bit depth                                : 8 bits
Scan type                                : Progressive
Bits/(Pixel*Frame)                       : 0.385
Stream size                              : 4.93 GiB (86%)
Title                                    : profile.php?mode=viewprofile&u=22488948
Writing library                          : x264 core 142 r2479kMod dd79a61
Encoding settings                        : cabac=1 / ref=9 / deblock=1:-3:-3 / analyse=0x3:0x133 / me=umh / subme=11 / psy=1 / fade_compensate=0.00 / psy_rd=1.00:0.00 / mixed_ref=1 / me_range=32 / chroma_me=1 / trellis=2 / 8x8dct=1 / cqm=0 / deadzone=21,11 / fast_pskip=1 / chroma_qp_offset=-2 / threads=12 / lookahead_threads=3 / sliced_threads=0 / nr=0 / decimate=1 / interlaced=0 / bluray_compat=0 / constrained_intra=0 / fgo=0 / bframes=10 / b_pyramid=2 / b_adapt=2 / b_bias=0 / direct=3 / weightb=1 / open_gop=0 / weightp=2 / keyint=250 / keyint_min=24 / scenecut=40 / intra_refresh=0 / rc=crf / mbtree=0 / crf=14.0000 / qcomp=0.65 / qpmin=0 / qpmax=69 / qpstep=4 / ip_ratio=1.25 / pb_ratio=1.20 / aq=1:0.60
Language                                 : Swedish
Default                                  : Yes
Forced                                   : No
Audio #1
ID                                       : 2
Format                                   : AC-3
Format/Info                              : Audio Coding 3
Mode extension                           : CM (complete main)
Format settings, Endianness              : Big
Codec ID                                 : A_AC3
Duration                                 : 1h 51mn
Bit rate mode                            : Constant
Bit rate                                 : 256 Kbps
Channel(s)                               : 2 channels
Channel positions                        : Front: L R
Sampling rate                            : 48.0 KHz
Bit depth                                : 16 bits
Compression mode                         : Lossy
Stream size                              : 204 MiB (3%)
Title                                    : P, MVO
Language                                 : Russian
Default                                  : Yes
Forced                                   : No
Audio #2
ID                                       : 3
Format                                   : AC-3
Format/Info                              : Audio Coding 3
Mode extension                           : CM (complete main)
Format settings, Endianness              : Big
Codec ID                                 : A_AC3
Duration                                 : 1h 51mn
Bit rate mode                            : Constant
Bit rate                                 : 640 Kbps
Channel(s)                               : 6 channels
Channel positions                        : Front: L C R, Side: L R, LFE
Sampling rate                            : 48.0 KHz
Bit depth                                : 16 bits
Compression mode                         : Lossy
Stream size                              : 510 MiB (9%)
Language                                 : Swedish
Default                                  : No
Forced                                   : No
Text #1
ID                                       : 4
Format                                   : UTF-8
Codec ID                                 : S_TEXT/UTF8
Codec ID/Info                            : UTF-8 Plain Text
Language                                 : English
Default                                  : No
Forced                                   : No
Text #2
ID                                       : 5
Format                                   : UTF-8
Codec ID                                 : S_TEXT/UTF8
Codec ID/Info                            : UTF-8 Plain Text
Title                                    : [Елена Володина]
Language                                 : Russian
Default                                  : No
Forced                                   : No
Text #3
ID                                       : 6
Format                                   : UTF-8
Codec ID                                 : S_TEXT/UTF8
Codec ID/Info                            : UTF-8 Plain Text
Language                                 : Finnish
Default                                  : No
Forced                                   : No
Text #4
ID                                       : 7
Format                                   : ASS
Codec ID                                 : S_TEXT/ASS
Codec ID/Info                            : Advanced Sub Station Alpha
Compression mode                         : Lossless
Language                                 : Swedish
Default                                  : No
Forced                                   : No
Text #5
ID                                       : 8
Format                                   : UTF-8
Codec ID                                 : S_TEXT/UTF8
Codec ID/Info                            : UTF-8 Plain Text
Title                                    : forced
Language                                 : Swedish
Default                                  : No
Forced                                   : No
Text #6
ID                                       : 9
Format                                   : ASS
Codec ID                                 : S_TEXT/ASS
Codec ID/Info                            : Advanced Sub Station Alpha
Compression mode                         : Lossless
Language                                 : Norwegian
Default                                  : No
Forced                                   : No
Menu
00:00:00.000                             : en:00:00:00.000
00:07:34.917                             : en:00:07:34.917
00:11:07.667                             : en:00:11:07.667
00:16:27.250                             : en:00:16:27.250
00:22:37.458                             : en:00:22:37.458
00:26:59.208                             : en:00:26:59.208
00:32:50.625                             : en:00:32:50.625
00:37:56.083                             : en:00:37:56.083
00:44:23.875                             : en:00:44:23.875
00:52:53.875                             : en:00:52:53.875
00:58:09.583                             : en:00:58:09.583
01:08:45.583                             : en:01:08:45.583
01:15:48.458                             : en:01:15:48.458
01:27:14.625                             : en:01:27:14.625
01:31:02.083                             : en:01:31:02.083
01:35:21.250                             : en:01:35:21.250
01:42:39.917                             : en:01:42:39.917
01:47:49.625                             : en:01:47:49.625
x264 Infox264 [info]: frame I:1212 Avg QP:11.87 size:107212
x264 [info]: frame P:35139 Avg QP:12.85 size: 50586
x264 [info]: frame B:124232 Avg QP:14.28 size: 28230
x264 [info]: consecutive B-frames: 1.9% 3.8% 9.6% 17.2% 15.9% 40.7% 5.1% 1.2% 2.6% 0.7% 1.2% Цитата: Аудио дорожка 1 - Direct-VOD-Stream-Copy., сравнение спектров того что гуляет по сети с моей дорожкой
5.1 что гуляет так же по сети - слепленный подменой центрального канала, спасибо за это уходят в ЭЛЕКТРИЧКУ
За всё остальное (сабы, рип), спасибки HPotter



Показать сообщения:    

Текущее время: 07-Дек 21:24

Часовой пояс: UTC + 3


Вы не можете начинать темы
Вы не можете отвечать на сообщения
Вы не можете редактировать свои сообщения
Вы не можете удалять свои сообщения
Вы не можете голосовать в опросах
Вы не можете прикреплять файлы к сообщениям
Вы не можете скачивать файлы