Медея / Medea (Пьер Паоло Пазолини / Pier Paolo Pasolini) [1969 г., Италия, Франция, Германия (ФРГ), фэнтези, драма, BDRip 1080p] 2х DVO + Dub (Eng) + Original Ita + Sub (Rus, Eng)


 

[Цитировать]

-Медея / Medea«It's a movie about a woman who beheads her brother, stabs her children, and sends her lover's wife up in flames. For Maria Callas, it's a natural» Страна: Италия, Франция, Германия (ФРГ)
Жанр: Фэнтези, драма
Год выпуска: 1969
Продолжительность: 01:51:01-Перевод 1: Профессиональный (двухголосый закадровый) Кармен Видео
Перевод 2: Профессиональный (двухголосый закадровый)
Оригинальная аудиодорожка: итальянский
Cубтитры: русские, английские
Режиссер: Пьер Паоло Пазолини / Pier Paolo Pasolini
В ролях: Мария Каллас, Массимо Джиротти, Лоран Терзиефф, Джузеппе Джентиле, Маргарет Клеманти, Пол Джабара, Герард Вайсс, Серджо Трамонти, Луиджи Барбини, Джан Паоло Дургар
Описание: В фильме мало места уделено «затертому» сюжету об «аргонавтах», можно сказать упоминается об этом вскользь. Причем аргонавты показаны отнюдь не романтично героически, а скорее напоминают наемников-мародеров. Большая же часть фильма посвящена второй половине жизни Медеи и Ясона: встреча, любовь и расставание. Брошенная, и даже изгнанная Медея не может простить коварства своего бывшего возлюбленного, променявшего ее ради свадьбы с Глоцией, дочерью короля Креона. Она начинает мщение с помощью своих магических чар.-
Сэмпл: скачать-Релиз от -
Автор рипа: Elheym
Качество: BDRip 1080p (источник: / Blu-Ray Remux / 1080p)
Контейнер: MKV
Видео: 1920x1038 (1.85:1), 23.976 fps, MPEG-4 AVC, ~18300 kbps avg, 0.383 bit/pixel
Аудио #1: Русский: АС3, 2.0, 48 kHz, ~192 Кбит/с | Профессиональный (двухголосый, закадровый) Кармен Видео |
Аудио #2: Русский: АС3, 2.0, 48 kHz, ~192 Кбит/с | Профессиональный (двухголосый, закадровый) |
Аудио #3: Английский: FLAC 2.0, 48 kHz, ~616 Кбит/с | Профессиональный (полное дублирование) |
Аудио #4: Итальянский: FLAC, 2.0, 48 kHz, ~290 Кбит/с | Оригинал |
Субтитры: Русские (полные: два вида), Английские (полные, форсированные)
Главы: Присутствуют, сохранены оригинальные

MediaInfo

Уникальный идентификатор : 243450874950502967669422142779448544403 (0xB726EED971DF95F88E089C08923ACC93)
Полное имя : Medea.1969.1080p.BluRay.2xRus.Eng.Ita.-HQCLUB.mkv
Формат : Matroska
Версия формата : Version 2
Размер файла : 15,2 Гбайт
Продолжительность : 1 ч. 51 м.
Режим общего битрейта : Переменный
Общий поток : 19,6 Мбит/сек
Дата кодирования : UTC 2014-12-29 17:58:22
Программа кодирования : mkvmerge v5.2.0 ('I can't explain') built on Dec 18 2011 18:12:03
Библиотека кодирования : libebml v1.2.3 + libmatroska v1.3.0
Видео
Идентификатор : 1
Формат : AVC
Формат/Информация : Advanced Video Codec
Профиль формата : High@L4.1
Параметр CABAC формата : Да
Параметр ReFrames формата : 3 кадра
Идентификатор кодека : V_MPEG4/ISO/AVC
Продолжительность : 1 ч. 51 м.
Номинальный битрейт : 18,3 Мбит/сек
Ширина : 1920 пикселей
Высота : 1038 пикселей
Соотношение сторон : 1,85:1
Режим частоты кадров : Постоянный
Частота кадров : 23,976 кадра/сек
Цветовое пространство : YUV
Субдискретизация насыщенности : 4:2:0
Битовая глубина : 8 бит
Тип развёртки : Прогрессивная
Бит/(Пиксели*Кадры) : 0.383
Заголовок : Медея / Medea (1969) BDRip 1080p by HQCLUB [Elheym]
Библиотека кодирования : x264 core 142 r2453 ea0ca51
Настройки программы : cabac=1 / ref=4 / deblock=1:-3:-2 / analyse=0x3:0x113 / me=umh / subme=11 / psy=1 / psy_rd=1.02:0.00 / mixed_ref=1 / me_range=32 / chroma_me=1 / trellis=2 / 8x8dct=1 / cqm=0 / deadzone=21,11 / fast_pskip=1 / chroma_qp_offset=-4 / threads=6 / lookahead_threads=1 / sliced_threads=0 / nr=0 / decimate=1 / interlaced=0 / bluray_compat=0 / constrained_intra=0 / bframes=14 / b_pyramid=1 / b_adapt=2 / b_bias=0 / direct=3 / weightb=1 / open_gop=0 / weightp=2 / keyint=240 / keyint_min=23 / scenecut=40 / intra_refresh=0 / rc_lookahead=40 / rc=2pass / mbtree=0 / bitrate=18300 / ratetol=1.0 / qcomp=0.60 / qpmin=10 / qpmax=69 / qpstep=4 / cplxblur=20.0 / qblur=0.5 / vbv_maxrate=50000 / vbv_bufsize=62500 / nal_hrd=none / filler=0 / ip_ratio=1.40 / pb_ratio=1.30 / aq=1:0.90
Язык : Italian
Default : Да
Forced : Нет
Аудио #1
Идентификатор : 2
Формат : AC-3
Формат/Информация : Audio Coding 3
Расширение режима : CM (complete main)
Параметр Endianness формата : Big
Идентификатор кодека : A_AC3
Продолжительность : 1 ч. 51 м.
Вид битрейта : Постоянный
Битрейт : 192 Кбит/сек
Каналы : 2 канала
Расположение каналов : Front: L R
Частота : 48,0 КГц
Битовая глубина : 16 бит
Метод сжатия : С потерями
Размер потока : 152 Мбайт (1%)
Заголовок : АС3 2.0 @ 192 kbps - DVO, Karmen
Язык : Russian
Default : Нет
Forced : Нет
Аудио #2
Идентификатор : 3
Формат : AC-3
Формат/Информация : Audio Coding 3
Расширение режима : CM (complete main)
Параметр Endianness формата : Big
Идентификатор кодека : A_AC3
Продолжительность : 1 ч. 51 м.
Вид битрейта : Постоянный
Битрейт : 192 Кбит/сек
Каналы : 2 канала
Расположение каналов : Front: L R
Частота : 48,0 КГц
Битовая глубина : 16 бит
Метод сжатия : С потерями
Размер потока : 152 Мбайт (1%)
Заголовок : АС3 2.0 @ 192 kbps - DVO
Язык : Russian
Default : Нет
Forced : Нет
Аудио #3
Идентификатор : 4
Формат : FLAC
Формат/Информация : Free Lossless Audio Codec
Идентификатор кодека : A_FLAC
Продолжительность : 1 ч. 51 м.
Вид битрейта : Переменный
Каналы : 2 канала
Расположение каналов : Front: L R
Частота : 48,0 КГц
Битовая глубина : 16 бит
Заголовок : FLAC 2.0 @ 616 kbps - Dub
Библиотека кодирования : libFLAC 1.3.0 (UTC 2013-05-26)
Язык : English
Default : Нет
Forced : Нет
Аудио #4
Идентификатор : 5
Формат : FLAC
Формат/Информация : Free Lossless Audio Codec
Идентификатор кодека : A_FLAC
Продолжительность : 1 ч. 51 м.
Вид битрейта : Переменный
Каналы : 2 канала
Расположение каналов : Front: L R
Частота : 48,0 КГц
Битовая глубина : 16 бит
Заголовок : FLAC 2.0 @ 290 kbps - Original
Библиотека кодирования : libFLAC 1.3.0 (UTC 2013-05-26)
Язык : Italian
Default : Нет
Forced : Нет
Текст #1
Идентификатор : 6
Формат : UTF-8
Идентификатор кодека : S_TEXT/UTF8
Идентификатор кодека/Информация : UTF-8 Plain Text
Заголовок : Full
Язык : Russian
Default : Нет
Forced : Нет
Текст #2
Идентификатор : 7
Формат : UTF-8
Идентификатор кодека : S_TEXT/UTF8
Идентификатор кодека/Информация : UTF-8 Plain Text
Заголовок : Full
Язык : Russian
Default : Нет
Forced : Нет
Текст #3
Идентификатор : 8
Формат : UTF-8
Идентификатор кодека : S_TEXT/UTF8
Идентификатор кодека/Информация : UTF-8 Plain Text
Заголовок : Full
Язык : English
Default : Нет
Forced : Нет
Текст #4
Идентификатор : 9
Формат : UTF-8
Идентификатор кодека : S_TEXT/UTF8
Идентификатор кодека/Информация : UTF-8 Plain Text
Заголовок : Forced
Язык : English
Default : Нет
Forced : Нет
Меню
00:00:00.000 : :Chapter 01
00:08:58.538 : :Chapter 02
00:24:16.454 : :Chapter 03
00:36:55.213 : :Chapter 04
00:49:20.958 : :Chapter 05
00:55:10.306 : :Chapter 06
01:03:40.817 : :Chapter 07
01:10:58.253 : :Chapter 08
01:17:55.295 : :Chapter 09
01:23:46.020 : :Chapter 10
01:30:58.453 : :Chapter 11
01:41:26.705 : :Chapter 12

x264 log

x264 [info]: frame I:914 Avg QP:17.52 size:246541
x264 [info]: frame P:29559 Avg QP:19.01 size:154670
x264 [info]: frame B:129249 Avg QP:21.22 size: 80770
x264 [info]: consecutive B-frames: 1.0% 1.7% 5.2% 12.1% 12.7% 40.0% 9.4% 4.4% 4.4% 3.5% 2.0% 1.8% 0.9% 0.5% 0.3%
x264 [info]: ref P L0: 56.0% 13.1% 28.2% 2.7% 0.0%
x264 [info]: ref B L0: 87.2% 12.8%
x264 [info]: ref B L1: 90.7% 9.3%

Скриншоты

Сравнения





Показать сообщения:    

Текущее время: 04-Дек 02:54

Часовой пояс: UTC + 3


Вы не можете начинать темы
Вы не можете отвечать на сообщения
Вы не можете редактировать свои сообщения
Вы не можете удалять свои сообщения
Вы не можете голосовать в опросах
Вы не можете прикреплять файлы к сообщениям
Вы не можете скачивать файлы