Пленница / The Captive (Атом Эгоян / Atom Egoyan) [2014, Канада, триллер, BDRip 720p] VO (Lord32) + Sub Eng + Original Eng


 

[Цитировать]

Пленница / The Captive Страна: Канада
Студия: Ego Film Arts, The Film Farm
Жанр: триллер
Год выпуска: 2014
Продолжительность: 01:51:49
Перевод: Одноголосый (закадровый) Lord32 по субтитрам Janetta
Cубтитры: английские
Оригинальная аудиодорожка: английский
Режиссер: Атом Эгоян / Atom Egoyan
В ролях: Райан Рейнольдс, Скотт Спидман, Розарио Доусон, Мирей Инос, Кевин Дюран, Алексия Фаст, Пейтон Кеннеди, Брюс Гринвуд, Брендан Галь, Аарон Пул
Описание: Спустя восемь лет после исчезновения Кассандры, происходят события, указывающие на то, что девочка все еще жива. Полиции, родителям и самой Кассандре предстоит раскрыть тайну ее исчезновения.

Тип релиза: BDRip 720p [HDAccess]
Контейнер: MKV
Видео: AVC, 1280x536, 6500 kbps, 24.000fps
Аудио 1: Russian: 48 kHz, AC3, 3/2 (L,C,R,l,r) + LFE ch, ~640.00 kbps avg |Lord32|
Аудио 2: English: 48 kHz, AC3, 3/2 (L,C,R,l,r) + LFE ch, ~640.00 kbps avg |Original|
Чаптеры: есть

x264 log

x264 : frame I:1069 Avg QP:12.81 size:121409
x264 : frame P:30161 Avg QP:14.30 size: 55935
x264 : frame B:129795 Avg QP:15.14 size: 29660
x264 : consecutive B-frames: 1.1% 1.4% 4.3% 9.5% 14.0% 53.0% 8.4% 2.7% 3.9% 1.5%

MediaInfo

General
Unique ID : 196767085132440219882075188530495086378 (0x9407F64E530DA54DBDC3209FB4BFDF2A)
Complete name : D:\The.Captive.2014.720p.BluRay.DD5.1.x264-Talian-.mkv
Format : Matroska
Format version : Version 2
File size : 6.28 GiB
Duration : 1h 51mn
Overall bit rate : 8 039 Kbps
Movie name : The Captive-Talian-
Encoded date : UTC 2014-12-29 17:45:56
Writing application : mkvmerge v5.7.0 ('The Whirlwind') built on Jul 8 2012 20:08:51
Writing library : libebml v1.2.3 + libmatroska v1.3.0
Video
ID : 1
Format : AVC
Format/Info : Advanced Video Codec
Format profile : High@L4.1
Format settings, CABAC : Yes
Format settings, ReFrames : 12 frames
Codec ID : V_MPEG4/ISO/AVC
Duration : 1h 51mn
Bit rate : 6 599 Kbps
Width : 1 280 pixels
Height : 536 pixels
Display aspect ratio : 2.40:1
Frame rate : 24.000 fps
Color space : YUV
Chroma subsampling : 4:2:0
Bit depth : 8 bits
Scan type : Progressive
Bits/(Pixel*Frame) : 0.401
Stream size : 5.15 GiB (82%)
Title : HDAccess
Writing library : x264 core 142 r2431kMod ac76440
Encoding settings : cabac=1 / ref=12 / deblock=1:-3:-3 / analyse=0x3:0x133 / me=umh / subme=11 / psy=1 / fade_compensate=0.00 / psy_rd=1.05:0.00 / mixed_ref=1 / me_range=24 / chroma_me=1 / trellis=2 / 8x8dct=1 / cqm=0 / deadzone=21,11 / fast_pskip=0 / chroma_qp_offset=-2 / threads=18 / lookahead_threads=3 / sliced_threads=0 / nr=0 / decimate=0 / interlaced=0 / bluray_compat=0 / constrained_intra=0 / fgo=0 / bframes=9 / b_pyramid=2 / b_adapt=2 / b_bias=0 / direct=3 / weightb=1 / open_gop=0 / weightp=2 / keyint=250 / keyint_min=24 / scenecut=40 / intra_refresh=0 / rc=crf / mbtree=0 / crf=15.3000 / qcomp=0.65 / qpmin=0 / qpmax=69 / qpstep=4 / ip_ratio=1.30 / pb_ratio=1.20 / aq=1:0.85
Language : English
Default : Yes
Forced : No
Audio #1
ID : 2
Format : AC-3
Format/Info : Audio Coding 3
Mode extension : CM (complete main)
Format settings, Endianness : Big
Codec ID : A_AC3
Duration : 1h 51mn
Bit rate mode : Constant
Bit rate : 640 Kbps
Channel(s) : 6 channels
Channel positions : Front: L C R, Side: L R, LFE
Sampling rate : 48.0 KHz
Bit depth : 16 bits
Compression mode : Lossy
Stream size : 512 MiB (8%)
Title : VO-Lord32
Language : Russian
Default : Yes
Forced : No
Audio #2
ID : 3
Format : AC-3
Format/Info : Audio Coding 3
Mode extension : CM (complete main)
Format settings, Endianness : Big
Codec ID : A_AC3
Duration : 1h 51mn
Bit rate mode : Constant
Bit rate : 640 Kbps
Channel(s) : 6 channels
Channel positions : Front: L C R, Side: L R, LFE
Sampling rate : 48.0 KHz
Bit depth : 16 bits
Compression mode : Lossy
Stream size : 512 MiB (8%)
Title : Original
Language : English
Default : No
Forced : No
Text
ID : 4
Format : UTF-8
Codec ID : S_TEXT/UTF8
Codec ID/Info : UTF-8 Plain Text
Title : Sub
Language : English
Default : No
Forced : No
Menu
00:00:00.000 : en:Chapter 01
00:10:16.208 : en:Chapter 02
00:18:59.583 : en:Chapter 03
00:26:13.083 : en:Chapter 04
00:37:21.583 : en:Chapter 05
00:46:17.125 : en:Chapter 06
00:55:41.041 : en:Chapter 07
01:05:08.500 : en:Chapter 08
01:13:43.750 : en:Chapter 09
01:25:39.583 : en:Chapter 10
01:32:16.500 : en:Chapter 11
01:41:48.958 : en:Chapter 12

Скриншоты

Source vs Encode





Показать сообщения:    

Текущее время: 08-Дек 23:09

Часовой пояс: UTC + 3


Вы не можете начинать темы
Вы не можете отвечать на сообщения
Вы не можете редактировать свои сообщения
Вы не можете удалять свои сообщения
Вы не можете голосовать в опросах
Вы не можете прикреплять файлы к сообщениям
Вы не можете скачивать файлы