Время развлечений / Playtime (Жак Тати / Jacques Tati) [1967, Франция, Италия, комедия, BDRemux 1080p] [Criterion Collection] MVO + Sub (Rus, Eng) + Original Fre


 

[Цитировать]

Время развлечений / Playtime
Страна: Франция, Италия
Жанр: комедия
Год выпуска: 1967
Продолжительность: 02:04:06
Перевод: Профессиональный (многоголосый закадровый)
Cубтитры: русские, английские
Оригинальная аудиодорожка: французский-Режиссер: Жак Тати / Jacques Tati
В ролях: Жак Тати, Барбара Денек, Рита Мейден, Франс Румийи, Франс Делахаль, Валерии Камиль, Эрика Дентцлер, Билли Кирнс, Джек Готье
Описание: Этот широкоформатный фильм - история 24 часов, проведенных в Париже группой американцев, совершающих необычное путешествие с целью каждый день посещать новую столицу.
Смешная и занимательная картина - жестокая сатирическая критика урбанизма и механизированной "цивилизации".
IMDb || КиноПоиск-Тип релиза: BDRemux 1080p
Контейнер: MKV
Видео: MPEG-4 AVC Video, 1920x1080 at 23.976 fps, 23999 kbps
Аудио#1: Russian: 48 kHz, AC3, 2.0 ch, 192 kbps
Аудио#2: French: 48 kHz, DTS-HD MA, 3.0 ch, 2270 kbps (DTS Core: 3.0 / 48 kHz / 1509 kbps / 24-bit)
Аудио#3: English: 48 kHz, AC3, 2.0 ch, 192 kbps |Commentary
Формат субтитров: softsub (SRT)
Сэмпл

MediaInfo

General
Unique ID : 202944538561346831153114193847771447735 (0x98ADB24662FA6AE9885F2DCE4A17C1B7)
Complete name : I:\Время развлечений\Playtime.1967.Criterion.Restored.BDRemux. rutracker.mkv
Format : Matroska
Format version : Version 2
File size : 23.0 GiB
Duration : 2h 4mn
Overall bit rate mode : Variable
Overall bit rate : 26.6 Mbps
Movie name : Release for RuTracker
Writing application : mkvmerge v5.0.1 ('Es ist Sommer') built on Nov 6 2011 16:23:40
Writing library : libebml v1.2.2 + libmatroska v1.3.0
Video
ID : 1
Format : AVC
Format/Info : Advanced Video Codec
Format profile : High@L4.1
Format settings, CABAC : Yes
Format settings, ReFrames : 4 frames
Codec ID : V_MPEG4/ISO/AVC
Duration : 2h 4mn
Bit rate mode : Variable
Maximum bit rate : 37.0 Mbps
Width : 1 920 pixels
Height : 1 080 pixels
Display aspect ratio : 16:9
Frame rate mode : Constant
Frame rate : 23.976 fps
Color space : YUV
Chroma subsampling : 4:2:0
Bit depth : 8 bits
Scan type : Progressive
Title : Playtime.1967.Criterion.BDRemux. rutracker
Language : French
Default : Yes
Forced : No
Audio #1
ID : 2
Format : AC-3
Format/Info : Audio Coding 3
Mode extension : CM (complete main)
Format settings, Endianness : Big
Codec ID : A_AC3
Duration : 2h 4mn
Bit rate mode : Constant
Bit rate : 192 Kbps
Channel(s) : 2 channels
Channel positions : Front: L R
Sampling rate : 48.0 KHz
Bit depth : 16 bits
Compression mode : Lossy
Stream size : 170 MiB (1%)
Language : Russian
Default : Yes
Forced : No
Audio #2
ID : 3
Format : DTS
Format/Info : Digital Theater Systems
Format profile : MA / Core
Mode : 16
Format settings, Endianness : Big
Codec ID : A_DTS
Duration : 2h 4mn
Bit rate mode : Variable
Bit rate : Unknown / 1 509 Kbps
Channel(s) : 3 channels
Channel positions : Front: L C R
Sampling rate : 48.0 KHz
Bit depth : 24 bits
Compression mode : Lossless / Lossy
Language : French
Default : No
Forced : No
Audio #3
ID : 4
Format : AC-3
Format/Info : Audio Coding 3
Mode extension : CM (complete main)
Format settings, Endianness : Big
Codec ID : A_AC3
Duration : 2h 4mn
Bit rate mode : Constant
Bit rate : 192 Kbps
Channel(s) : 2 channels
Channel positions : Front: L R
Sampling rate : 48.0 KHz
Bit depth : 16 bits
Compression mode : Lossy
Stream size : 170 MiB (1%)
Title : commentary
Language : English
Default : No
Forced : No
Text #1
ID : 5
Format : UTF-8
Codec ID : S_TEXT/UTF8
Codec ID/Info : UTF-8 Plain Text
Language : Russian
Default : No
Forced : No
Text #2
ID : 6
Format : UTF-8
Codec ID : S_TEXT/UTF8
Codec ID/Info : UTF-8 Plain Text
Language : English
Default : No
Forced : No
Menu
00:00:00.000 : en:1
00:06:23.674 : en:2
00:09:26.023 : en:3
00:12:44.680 : en:4
00:16:27.945 : en:5
00:21:14.815 : en:6
00:29:55.001 : en:7
00:32:54.555 : en:8
00:37:22.531 : en:9
00:42:03.312 : en:10
00:47:40.941 : en:11
00:58:01.019 : en:12
01:00:36.132 : en:13
01:03:55.456 : en:14
01:07:51.776 : en:15
01:14:23.709 : en:16
01:20:15.143 : en:17
01:25:08.770 : en:18
01:29:06.924 : en:19
01:34:58.734 : en:20
01:41:24.578 : en:21
01:51:06.284 : en:22
01:55:51.110 : en:23

Скриншоты

Old Criterion vs New Criterion (Restored)



Показать сообщения:    

Текущее время: 05-Дек 03:31

Часовой пояс: UTC + 3


Вы не можете начинать темы
Вы не можете отвечать на сообщения
Вы не можете редактировать свои сообщения
Вы не можете удалять свои сообщения
Вы не можете голосовать в опросах
Вы не можете прикреплять файлы к сообщениям
Вы не можете скачивать файлы