Я нанял убийцу / I Hired a Contract Killer (Аки Каурисмяки / Aki Kaurismaki) [1990, Финляндия, Великобритания, Германия, Швеция, Франция, трагикомедия, BDRip 720p] DVO (R5) + AVO (Кузнецов) + Original (Eng) + Sub (Rus)


 

[Цитировать]

Я нанял себе убийцу / I Hired a Contract Killer Страна: Финляндия, Великобритания, Германия, Швеция, Франция
Жанр: Трагикомедия, арт-хаус
Год выпуска: 1990
Продолжительность: 01:19:13
Перевод #1: Профессиональный двухголосый закадровый (R5)
Перевод #2: Авторский одноголосый закадровый (Сергей Кузнецов)
Оригинальная аудиодорожка: Английский
Cубтитры: Русские
Режиссёр: Аки Каурисмяки / Aki Kaurismaki
В ролях: Жан-Пьер Лео / Jean-Pierre Leaud, Марджи Кларк / Margi Clarke, Кеннет Колли / Kenneth Colley, Т.Р. Бауэн / T.R. Bowen и др.
Описание:
Одинокий клерк Анри, французский эмигрант, проживающий на окраине Лондона, сокращённый после пятнадцати лет верной службы, решает свести счеты с жизнью. Но приходит к нетрадиционному решению, наняв для себя киллера. Безжалостный киллер оказывается безнадежно больным человеком. Однако по иронии судьбы после этой судьбоносной сделки герой влюбляется в цветочницу Маргарет и совершенно не хочет больше умирать! Тут он и понимает, что разорвать контракт не так-то просто - никакой визитки киллер не оставил...
Трагикомичный фильм насыщен чёрным юмором, но в финале всё равно оборачивается негромким, немного смешным, немного грустным блюзом о жизни "маленьких людей".
Качество видео: BDRip 720p
Формат видео: MKV
Видео: AVC/H264, High@L4.1, 1280x720 (1,78:1), 23,976 fps, 7298 kbps, 0.323 bit/pixel
Аудио #1: Русский двухголосый: AC3, 48 kHz, 2.0, 192 kbps | R5
Аудио #2: Русский одноголосый: AC3, 48 kHz, 2.0, 192 kbps | С.Кузнецов
Аудио #3: Английский оригинал: DTS, 48 kHz, 1.0, 768 kbps
Субтитры: Русские-

MediaInfo / x264 logx264 log

raw [info]: 1280x720p 1:1 @ 24000/1001 fps (cfr)
x264 [info]: using SAR=1/1
x264 [info]: using cpu capabilities: MMX2 SSE2Fast SSSE3 SSE4.2
x264 [info]: profile High, level 4.1
x264 [info]: frame I:648 Avg QP:19.23 size:101443
x264 [info]: frame P:16833 Avg QP:20.02 size: 58882
x264 [info]: frame B:96495 Avg QP:21.13 size: 33954
x264 [info]: consecutive B-frames: 0.7% 0.2% 0.9% 7.8% 8.5% 25.5% 12.8% 9.9% 10.5% 11.3% 6.1% 3.3% 2.6%
x264 [info]: mb I I16..4: 4.7% 84.9% 10.4%
x264 [info]: mb P I16..4: 0.2% 15.0% 0.4% P16..4: 26.0% 32.7% 16.6% 1.4% 0.1% skip: 7.6%
x264 [info]: mb B I16..4: 0.0% 3.1% 0.0% B16..8: 34.5% 22.7% 6.7% direct:11.7% skip:21.2% L0:46.0% L1:38.1% BI:15.9%
x264 [info]: 8x8 transform intra:96.1% inter:54.8%
x264 [info]: coded y,uvDC,uvAC intra: 96.3% 71.6% 23.4% inter: 54.0% 31.1% 2.6%
x264 [info]: i16 v,h,dc,p: 51% 19% 13% 18%
x264 [info]: i8 v,h,dc,ddl,ddr,vr,hd,vl,hu: 8% 6% 11% 11% 14% 13% 12% 12% 12%
x264 [info]: i4 v,h,dc,ddl,ddr,vr,hd,vl,hu: 13% 7% 11% 9% 14% 13% 11% 10% 11%
x264 [info]: i8c dc,h,v,p: 31% 31% 22% 16%
x264 [info]: Weighted P-Frames: Y:9.4% UV:4.1%
x264 [info]: ref P L0: 34.1% 9.6% 20.9% 9.2% 8.9% 6.4% 6.6% 3.9% 0.3% 0.0%
x264 [info]: ref B L0: 59.8% 17.2% 9.7% 5.8% 4.6% 2.3% 0.6%
x264 [info]: ref B L1: 88.2% 11.8%
x264 [info]: kb/s:7298.36

MediaInfo

Формат : Matroska
Версия формата : Version 4 / Version 2
Размер файла : 4,68 Гбайт
Продолжительность : 1 ч. 19 м.
Общий поток : 8452 Кбит/сек
Дата кодирования : UTC 2014-12-10 12:27:39
Программа кодирования : mkvmerge v7.2.0 ('On Every Street') 64bit built on Sep 13 2014 15:52:10
Библиотека кодирования : libebml v1.3.0 + libmatroska v1.4.1
DURATION : 01:15:24.649000000
NUMBER_OF_FRAMES : 300
NUMBER_OF_BYTES : 14045
Видео
Идентификатор : 1
Формат : AVC
Формат/Информация : Advanced Video Codec
Профиль формата : High@L4.1
Параметр CABAC формата : Да
Параметр ReFrames формата : 8 кадров
Идентификатор кодека : V_MPEG4/ISO/AVC
Продолжительность : 1 ч. 19 м.
Битрейт : 7131 Кбит/сек
Ширина : 1280 пикселей
Высота : 720 пикселей
Соотношение сторон : 16:9
Режим частоты кадров : Постоянный
Частота кадров : 23,976 кадра/сек
Цветовое пространство : YUV
Субдискретизация насыщенности : 4:2:0
Битовая глубина : 8 бит
Тип развёртки : Прогрессивная
Бит/(Пиксели*Кадры) : 0.323
Размер потока : 3,95 Гбайт (84%)
Заголовок : Я нанял убийцу / I Hired a Contract Killer (1990) BDRip 720p © @ndtwice
Библиотека кодирования : x264 core 142 r2431 ac76440
Настройки программы : cabac=1 / ref=8 / deblock=1:-3:-3 / analyse=0x3:0x133 / me=umh / subme=11 / psy=1 / psy_rd=1.00:0.00 / mixed_ref=1 / me_range=96 / chroma_me=1 / trellis=2 / 8x8dct=1 / cqm=0 / deadzone=6,6 / fast_pskip=0 / chroma_qp_offset=-2 / threads=3 / lookahead_threads=1 / sliced_threads=0 / nr=0 / decimate=0 / interlaced=0 / bluray_compat=0 / constrained_intra=0 / bframes=12 / b_pyramid=2 / b_adapt=2 / b_bias=0 / direct=1 / weightb=1 / open_gop=0 / weightp=2 / keyint=250 / keyint_min=23 / scenecut=40 / intra_refresh=0 / rc=crf / mbtree=0 / crf=18.7 / qcomp=0.80 / qpmin=0 / qpmax=60 / qpstep=4 / ip_ratio=1.20 / pb_ratio=1.20 / aq=1:0.50
Язык : English
Default : Да
Forced : Нет
DURATION : 01:19:13.749000000
NUMBER_OF_FRAMES : 113976
NUMBER_OF_BYTES : 4335851016
Аудио #1
Идентификатор : 2
Формат : AC-3
Формат/Информация : Audio Coding 3
Расширение режима : CM (complete main)
Параметр Endianness формата : Big
Идентификатор кодека : A_AC3
Продолжительность : 1 ч. 19 м.
Вид битрейта : Постоянный
Битрейт : 192 Кбит/сек
Каналы : 2 канала
Расположение каналов : Front: L R
Частота : 48,0 КГц
Битовая глубина : 16 бит
Метод сжатия : С потерями
Размер потока : 109 Мбайт (2%)
Заголовок : MVO R5
Язык : Russian
Default : Да
Forced : Нет
Аудио #2
Идентификатор : 3
Формат : AC-3
Формат/Информация : Audio Coding 3
Расширение режима : CM (complete main)
Параметр Endianness формата : Big
Идентификатор кодека : A_AC3
Продолжительность : 1 ч. 19 м.
Вид битрейта : Постоянный
Битрейт : 192 Кбит/сек
Каналы : 2 канала
Расположение каналов : Front: L R
Частота : 48,0 КГц
Битовая глубина : 16 бит
Метод сжатия : С потерями
Размер потока : 109 Мбайт (2%)
Заголовок : AVO С.Кузнецов
Язык : Russian
Default : Нет
Forced : Нет
Аудио #3
Идентификатор : 4
Формат : DTS
Формат/Информация : Digital Theater Systems
Режим : 16
Параметр Endianness формата : Big
Идентификатор кодека : A_DTS
Продолжительность : 1 ч. 19 м.
Вид битрейта : Постоянный
Битрейт : 768 Кбит/сек
Каналы : 1 канал
Расположение каналов : Front: C
Частота : 48,0 КГц
Битовая глубина : 24 бит
Метод сжатия : С потерями
Размер потока : 435 Мбайт (9%)
Заголовок : Original
Язык : English
Default : Нет
Forced : Нет
Текст
Идентификатор : 5
Формат : UTF-8
Идентификатор кодека : S_TEXT/UTF8
Идентификатор кодека/Информация : UTF-8 Plain Text
Заголовок : Subs Rus
Язык : Russian
Default : Да
Forced : Нет

Скриншоты

СравненияСравнение с исходником

http://screenshotcomparison.com/comparison/102851

Сравнение с альтернативной раздачей

Оригинал / Этот рип / Старый рип




-Исходник: Blu-ray AVC DTS-HD MA 1.0 (29897 kbps)
-



Показать сообщения:    

Текущее время: 04-Дек 04:56

Часовой пояс: UTC + 3


Вы не можете начинать темы
Вы не можете отвечать на сообщения
Вы не можете редактировать свои сообщения
Вы не можете удалять свои сообщения
Вы не можете голосовать в опросах
Вы не можете прикреплять файлы к сообщениям
Вы не можете скачивать файлы