Улыбки летней ночи / Sommarnattens leende (Ингмар Бергман / Ingmar Bergman) [1955, Швеция, комедия, BDRemux 1080p] MVO + VO + Sub (Rus, Eng) + Original Swe


 

[Цитировать]

Улыбки летней ночи / Sommarnattens leende
Страна: Швеция
Жанр: комедия
Год выпуска: 1955
Продолжительность: 01:49:37
Перевод: Профессиональный (многоголосый закадровый)
Перевод: Одноголосый закадровый, Деваль Видео
Cубтитры: русские, английские
Оригинальная аудиодорожка: шведский-Режиссер: Ингмар Бергман / Ingmar Bergman
В ролях: Улла Якобссон, Эва Дальбек, Харриет Андерсон, Маргит Карлгвист, Гуннар Бьёрнстранд, Ярль Кулле, Оке Фриделль, Бьёрн Бьельфвенстам, Найма Вифстранд, Юллан Киндаль
Описание: Компания из нескольких абсолютно разных людей, судьбы которых переплетены самым причудливым образом, проводят летнюю ночь в одном месте. Бывшие и нынешние любовники, жёны и мужья... Все они испытывают какое-то неудовлетворение и о чём-то или, скорее, о ком-то грезят. Но магия летней ночи как будто опьяняет персонажей картины, заставляя их чувства вырываться наружу, навстречу потаённым желаниям...
IMDb || КиноПоиск-Тип релиза: BDRemux 1080p [Sommarnattens leende 1955 1080p GER Blu-ray AVC DTS-HD MA 2.0 (thx Aniki)]
Контейнер: MKV
Видео: MPEG-4 AVC Video, 1920x1080 at 23.976 fps, 23998 kbps
Аудио#1: Russian: 48 kHz, AC3, 2.0 ch, 192 kbps
Аудио#2: Russian: 48 kHz, AC3, 2.0 ch, 192 kbps
Аудио#3: Swedish: 48 kHz, DTS-HD MA, 2.0 ch, 1437 kbps (DTS Core: 2.0 / 48 kHz / 768 kbps / 24-bit)
Формат субтитров: softsub (SRT)
Сэмпл

MediaInfo

General
Unique ID : 214052037641883418926208806240141062962 (0xA108EC42DB74DD2DB3CA377EC2763332)
Complete name : I:\Улыбки летней ночи\Sommarnattens.leende.1955.GER.BDRemux. rutracker.mkv
Format : Matroska
Format version : Version 2
File size : 19.8 GiB
Duration : 1h 49mn
Overall bit rate mode : Variable
Overall bit rate : 25.8 Mbps
Movie name : Release for RuTracker
Writing application : mkvmerge v5.0.1 ('Es ist Sommer') built on Nov 6 2011 16:23:40
Writing library : libebml v1.2.2 + libmatroska v1.3.0
Video
ID : 1
Format : AVC
Format/Info : Advanced Video Codec
Format profile : High@L4.1
Format settings, CABAC : Yes
Format settings, ReFrames : 4 frames
Codec ID : V_MPEG4/ISO/AVC
Duration : 1h 49mn
Bit rate mode : Variable
Maximum bit rate : 33.0 Mbps
Width : 1 920 pixels
Height : 1 080 pixels
Display aspect ratio : 16:9
Frame rate mode : Constant
Frame rate : 23.976 fps
Standard : NTSC
Color space : YUV
Chroma subsampling : 4:2:0
Bit depth : 8 bits
Scan type : Progressive
Title : Sommarnattens.leende.1955.GER.BDRemux. rutracker
Language : Swedish
Default : Yes
Forced : No
Color primaries : BT.709
Transfer characteristics : BT.709
Matrix coefficients : BT.709
Audio #1
ID : 2
Format : AC-3
Format/Info : Audio Coding 3
Mode extension : CM (complete main)
Format settings, Endianness : Big
Codec ID : A_AC3
Duration : 1h 49mn
Bit rate mode : Constant
Bit rate : 192 Kbps
Channel(s) : 2 channels
Channel positions : Front: L R
Sampling rate : 48.0 KHz
Bit depth : 16 bits
Compression mode : Lossy
Stream size : 151 MiB (1%)
Title : mvo
Language : Russian
Default : Yes
Forced : No
Audio #2
ID : 3
Format : AC-3
Format/Info : Audio Coding 3
Mode extension : CM (complete main)
Format settings, Endianness : Big
Codec ID : A_AC3
Duration : 1h 49mn
Bit rate mode : Constant
Bit rate : 192 Kbps
Channel(s) : 2 channels
Channel positions : Front: L R
Sampling rate : 48.0 KHz
Bit depth : 16 bits
Compression mode : Lossy
Stream size : 151 MiB (1%)
Title : vo
Language : Russian
Default : No
Forced : No
Audio #3
ID : 4
Format : DTS
Format/Info : Digital Theater Systems
Format profile : MA / Core
Mode : 16
Format settings, Endianness : Big
Codec ID : A_DTS
Duration : 1h 49mn
Bit rate mode : Variable
Bit rate : Unknown / 768 Kbps
Channel(s) : 2 channels
Channel positions : Front: L R
Sampling rate : 48.0 KHz
Bit depth : 24 bits
Compression mode : Lossless / Lossy
Language : Swedish
Default : No
Forced : No
Text #1
ID : 5
Format : UTF-8
Codec ID : S_TEXT/UTF8
Codec ID/Info : UTF-8 Plain Text
Language : Russian
Default : No
Forced : No
Text #2
ID : 6
Format : UTF-8
Codec ID : S_TEXT/UTF8
Codec ID/Info : UTF-8 Plain Text
Language : English
Default : No
Forced : No
Menu
00:00:00.000 : :1
00:10:32.173 : :2
00:20:48.121 : :3
00:28:07.102 : :4
00:33:35.513 : :5
00:44:34.004 : :6
00:56:43.149 : :7
01:06:03.292 : :8
01:11:05.177 : :9
01:23:32.757 : :10
01:31:52.590 : :11
01:40:18.554 : :12

Скриншоты

Criterion (USA) vs StudioCanal (GER)



Показать сообщения:    

Текущее время: 10-Дек 17:39

Часовой пояс: UTC + 3


Вы не можете начинать темы
Вы не можете отвечать на сообщения
Вы не можете редактировать свои сообщения
Вы не можете удалять свои сообщения
Вы не можете голосовать в опросах
Вы не можете прикреплять файлы к сообщениям
Вы не можете скачивать файлы