Скорей бы воскресенье / Веселенькое воскресенье / Vivement dimanche! / Finally, Sunday / Confidentially Yours (Франсуа Трюффо / François Truffaut) [1983 г., Франция, комедия, детектив, BDRemux 1080p] 2x MVO + Original Fre + Sub (Rus, Eng, Fre)


 

[Цитировать]

Скорей бы воскресенье / Vivement dimanche!- Год выпуска: 1983
Страна: Франция
Жанр: комедия, детектив
Продолжительность: 01:50:49
Перевод 1: Профессиональный (многоголосый закадровый) Кармен Видео
Перевод 2: Профессиональный ((многоголосый закадровый) т/к «Домашний»
Оригинальная аудиодорожка: Французская
Cубтитры: Русские (R5), английские, французские-Режиссер: Франсуа Трюффо / François Truffaut
В ролях: Фанни Ардан, Жан-Луи Трентиньян, Жан-Пьер Кальфон, Филипп Лоденбаш, Филипп Морье-Жену, Ксавьер Сен-Макари, Жан-Луи Ришар, Каролин Сиоль, Кастель Касти, Аник Белобр-Описание:
На охоте при невыясненных обстоятельствах застрелен некий Масулье. Подозрение падает на другого охотника - парижского риэлтера Жульена Верселя, тем более что редкий тип дроби в его патронах совпадает с дробью, обнаруженной в теле жертвы, а жена Верселя оказалась любовницей убитого. Ее тоже вскоре подстерегает загадочная смерть - и снова Версель лишен алиби. Кажется, что он загнан в угол, но тут на помощь приходит его секретарша Барбара, которая пускается в собственное расследование…-За "Кармен" спасибо jaggernaut, за "Домашний" спасибо miha2154.
| IMDb | Сэмпл-Качество: BDRemux 1080p (Vivement dimanche! 1983 1080p FRA Blu-ray AVC DTS-HD MA 1.0-SbR, thx dsk71)
Контейнер: MKV
Видео: AVC, 1920x1080 (1.66:1), 24 fps, 29137 kbps
Аудио 1: Русский AС3, 2.0, 48 kHz, 192 kbps — Кармен
Аудио 2: Русский AС3, 2.0, 48 kHz, 192 kbps — Домашний
Аудио 3: Французский DTS-HD MA 1.0, 48 kHz, 818 kbps, 16-bit (DTS Core: 1.0, 48 kHz, 768 kbps, 16-bit)
Аудио 4: Французский FLAC 1.0, 48 kHz, 344 kbps — Комментарии
Формат субтитров: softsub (SRT)

Скриншоты


MI

General
Unique ID : 234136667672827489016107456868170117336 (0xB02514F9B16E1D7492A6647158D4B0D8)
Complete name : Vivement.dimanche!.1983.1080p.Remux.mkv
Format : Matroska
Format version : Version 2
File size : 23.8 GiB
Duration : 1h 50mn
Overall bit rate mode : Variable
Overall bit rate : 30.7 Mbps
Movie name : Vivement dimanche! / Скорей бы воскресенье (1983) – RuTracker
Encoded date : UTC 2014-12-07 16:49:04
Writing application : mkvmerge v7.0.0 ('Where We Going') 64bit built on Jun 9 2014 15:16:27
Writing library : libebml v1.3.0 + libmatroska v1.4.1
Attachements : cover.jpg
Video
ID : 1
Format : AVC
Format/Info : Advanced Video Codec
Format profile : High@L4.1
Format settings, CABAC : Yes
Format settings, ReFrames : 4 frames
Codec ID : V_MPEG4/ISO/AVC
Duration : 1h 50mn
Bit rate mode : Variable
Maximum bit rate : 35.0 Mbps
Width : 1 920 pixels
Height : 1 080 pixels
Display aspect ratio : 16:9
Frame rate mode : Constant
Frame rate : 24.000 fps
Standard : NTSC
Color space : YUV
Chroma subsampling : 4:2:0
Bit depth : 8 bits
Scan type : Progressive
Title : Vivement dimanche! 1983 1080p FRA Blu-ray AVC DTS-HD MA 1.0-SbR
Language : French
Default : Yes
Forced : No
Color primaries : BT.709
Transfer characteristics : BT.709
Matrix coefficients : BT.709
Audio #1
ID : 2
Format : AC-3
Format/Info : Audio Coding 3
Mode extension : CM (complete main)
Format settings, Endianness : Big
Codec ID : A_AC3
Duration : 1h 50mn
Bit rate mode : Constant
Bit rate : 192 Kbps
Channel(s) : 2 channels
Channel positions : Front: L R
Sampling rate : 48.0 KHz
Bit depth : 16 bits
Compression mode : Lossy
Stream size : 152 MiB (1%)
Title : MVO – Кармен Видео
Language : Russian
Default : Yes
Forced : No
Audio #2
ID : 3
Format : AC-3
Format/Info : Audio Coding 3
Mode extension : CM (complete main)
Format settings, Endianness : Big
Codec ID : A_AC3
Duration : 1h 50mn
Bit rate mode : Constant
Bit rate : 192 Kbps
Channel(s) : 2 channels
Channel positions : Front: L R
Sampling rate : 48.0 KHz
Bit depth : 16 bits
Compression mode : Lossy
Stream size : 152 MiB (1%)
Title : MVO – Домашний
Language : Russian
Default : No
Forced : No
Audio #3
ID : 4
Format : DTS
Format/Info : Digital Theater Systems
Format profile : MA / Core
Mode : 16
Format settings, Endianness : Big
Codec ID : A_DTS
Duration : 1h 50mn
Bit rate mode : Variable
Bit rate : Unknown / 768 Kbps
Channel(s) : 1 channel
Channel positions : Front: C
Sampling rate : 48.0 KHz
Bit depth : 16 bits
Compression mode : Lossless / Lossy
Title : Original
Language : French
Default : No
Forced : No
Audio #4
ID : 5
Format : FLAC
Format/Info : Free Lossless Audio Codec
Codec ID : A_FLAC
Duration : 1h 50mn
Bit rate mode : Variable
Channel(s) : 1 channel
Sampling rate : 48.0 KHz
Bit depth : 16 bits
Title : Commentary by actor Jean-Louis Trintignant
Writing library : libFLAC 1.2.1 (UTC 2007-09-17)
Language : French
Default : No
Forced : No
Text #1
ID : 6
Format : UTF-8
Codec ID : S_TEXT/UTF8
Codec ID/Info : UTF-8 Plain Text
Title : R5
Language : Russian
Default : No
Forced : No
Text #2
ID : 7
Format : UTF-8
Codec ID : S_TEXT/UTF8
Codec ID/Info : UTF-8 Plain Text
Language : English
Default : No
Forced : No
Text #3
ID : 8
Format : UTF-8
Codec ID : S_TEXT/UTF8
Codec ID/Info : UTF-8 Plain Text
Title : SDH
Language : French
Default : No
Forced : No
Text #4
ID : 9
Format : PGS
Codec ID : S_HDMV/PGS
Codec ID/Info : The same subtitle format used on BDs/HD-DVDs
Title : PSDH
Language : French
Default : No
Forced : No
Menu
00:00:00.000 : en:Chapter 01
00:09:38.666 : en:Chapter 02
00:20:47.333 : en:Chapter 03
00:30:05.583 : en:Chapter 04
00:40:14.083 : en:Chapter 05
00:49:47.625 : en:Chapter 06
00:58:03.125 : en:Chapter 07
01:05:07.833 : en:Chapter 08
01:15:53.666 : en:Chapter 09
01:22:49.833 : en:Chapter 10
01:38:02.041 : en:Chapter 11
01:49:14.416 : en:Chapter 12



Показать сообщения:    

Текущее время: 24-Янв 12:13

Часовой пояс: UTC + 3


Вы не можете начинать темы
Вы не можете отвечать на сообщения
Вы не можете редактировать свои сообщения
Вы не можете удалять свои сообщения
Вы не можете голосовать в опросах
Вы не можете прикреплять файлы к сообщениям
Вы не можете скачивать файлы