Скорей бы воскресенье / Веселенькое воскресенье / Vivement dimanche! / Finally, Sunday / Confidentially Yours (Франсуа Трюффо / François Truffaut) [1983 г., Франция, комедия, детектив, BDRip 720p] 2x MVO + Original Fre + Sub (Rus, Eng, Fre)


 

[Цитировать]

Скорей бы воскресенье / Vivement dimanche!- Год выпуска: 1983
Страна: Франция
Жанр: комедия, детектив
Продолжительность: 01:50:49
Перевод 1: Профессиональный (многоголосый закадровый) Кармен Видео
Перевод 2: Профессиональный ((многоголосый закадровый) т/к «Домашний»
Оригинальная аудиодорожка: Французская
Cубтитры: Русские (R5), английские, французские-Режиссер: Франсуа Трюффо / François Truffaut
В ролях: Фанни Ардан, Жан-Луи Трентиньян, Жан-Пьер Кальфон, Филипп Лоденбаш, Филипп Морье-Жену, Ксавьер Сен-Макари, Жан-Луи Ришар, Каролин Сиоль, Кастель Касти, Аник Белобр-Описание:
На охоте при невыясненных обстоятельствах застрелен некий Масулье. Подозрение падает на другого охотника - парижского риэлтера Жульена Верселя, тем более что редкий тип дроби в его патронах совпадает с дробью, обнаруженной в теле жертвы, а жена Верселя оказалась любовницей убитого. Ее тоже вскоре подстерегает загадочная смерть - и снова Версель лишен алиби. Кажется, что он загнан в угол, но тут на помощь приходит его секретарша Барбара, которая пускается в собственное расследование…-За "Кармен" спасибо jaggernaut, за "Домашний" спасибо miha2154.
| IMDb | Сэмпл-Качество: BDRip 720p (DON)
Контейнер: MKV
Видео: x264, 1200x720 (1.66:1), 24 fps, 7968 kbps
Аудио 1: Русский AС3, 2.0, 48 kHz, 192 kbps — Кармен
Аудио 2: Русский AС3, 2.0, 48 kHz, 192 kbps — Домашний
Аудио 3: Французский FLAC 1.0, 48 kHz, 262 kbps
Аудио 4: Французский AAC 1.0, 48 kHz, 55 kbps — Комментарии
Формат субтитров: softsub (SRT)

MInfo

Info
RUNTIME.......: 1h 50mn
SIZE..........: 6.42 GiB
VIDEO CODEC...: x264, CRF 17.2, L4.1
FRAMERATE.....: 24.000 fps
BITRATE.......: 7 811 Kbps
RESOLUTION....: 1200x720
AUDIO ........: French 1.0ch FLAC
AUDIO 2.......: French 1.0ch AAC (Commentary - by actor Jean-Louis Trintignant)
SUBTITLES.....: English
CHAPTERS/NAMED: Yes / No
SOURCE........: Vivement dimanche! 1983 1080p FRA Blu-ray AVC DTS-HD MA 1.0-SbR(thanks!)
x264 info
profile High, level 4.1
x264 [info]: frame I:1004 Avg QP:16.82 size: 94370
x264 [info]: frame P:30765 Avg QP:17.92 size: 59600
x264 [info]: frame B:127815 Avg QP:19.37 size: 36731
x264 [info]: consecutive B-frames: 1.1% 1.7% 6.3% 15.0% 14.3% 41.3% 7.1% 1.9% 5.3% 1.2% 2.6% 2.2%
x264 [info]: kb/s:7968.46
encoded 159584 frames, 3.625 fps, 7968.46 kb/s, 6316.3 MB
General
Unique ID : 208191127121573057200799736676736093004 (0x9CA0271000700E089DB327054F74CB4C)
Complete name : Vivement.dimanche!.1983.720p.BluRay.x264-DON.mkv
Format : Matroska
Format version : Version 2
File size : 6.73 GiB
Duration : 1h 50mn
Overall bit rate mode : Variable
Overall bit rate : 8 688 Kbps
Movie name : Vivement dimanche! / Скорей бы воскресенье (1983) – RuTracker
Encoded date : UTC 2014-12-06 15:42:55
Writing application : mkvmerge v7.0.0 ('Where We Going') 64bit built on Jun 9 2014 15:16:27
Writing library : libebml v1.3.0 + libmatroska v1.4.1
Attachements : cover.jpg
Video
ID : 1
Format : AVC
Format/Info : Advanced Video Codec
Format profile : High@L4.1
Format settings, CABAC : Yes
Format settings, ReFrames : 9 frames
Codec ID : V_MPEG4/ISO/AVC
Duration : 1h 50mn
Width : 1 200 pixels
Height : 720 pixels
Display aspect ratio : 1.667
Frame rate mode : Constant
Frame rate : 24.000 fps
Color space : YUV
Chroma subsampling : 4:2:0
Bit depth : 8 bits
Scan type : Progressive
Title : Vivement.dimanche!.1983.720p.BluRay.FLAC1.0.x264-DON
Writing library : x264 core 142 r2409+42 04be48a tMod [8-bit@all X86_64]
Encoding settings : cabac=1 / ref=9 / deblock=1:-3:-3 / analyse=0x3:0x133 / me=tesa / subme=10 / psy=1 / fade_compensate=0.00 / psy_rd=1.05:0.00 / mixed_ref=1 / me_range=32 / chroma_me=1 / trellis=2 / 8x8dct=1 / cqm=0 / deadzone=21,11 / fast_pskip=0 / chroma_qp_offset=-2 / threads=12 / lookahead_threads=3 / sliced_threads=0 / nr=0 / decimate=1 / interlaced=0 / bluray_compat=0 / constrained_intra=0 / fgo=0 / bframes=11 / b_pyramid=2 / b_adapt=2 / b_bias=0 / direct=3 / weightb=1 / open_gop=0 / weightp=2 / keyint=241 / keyint_min=24 / scenecut=40 / intra_refresh=0 / rc_lookahead=60 / rc=crf / mbtree=0 / crf=17.2000 / qcomp=0.65 / qpmin=0:0:0 / qpmax=69:69:69 / qpstep=4 / vbv_maxrate=50000 / vbv_bufsize=62500 / crf_max=0.0 / nal_hrd=none / filler=0 / ip_ratio=1.30 / pb_ratio=1.20 / aq=4:0.80 / aq-sensitivity=10.00 / aq-factor=1.00:1.00:1.00 / aq2=0 / aq3=0
Language : French
Default : Yes
Forced : No
Audio #1
ID : 2
Format : AC-3
Format/Info : Audio Coding 3
Mode extension : CM (complete main)
Format settings, Endianness : Big
Codec ID : A_AC3
Duration : 1h 50mn
Bit rate mode : Constant
Bit rate : 192 Kbps
Channel(s) : 2 channels
Channel positions : Front: L R
Sampling rate : 48.0 KHz
Bit depth : 16 bits
Compression mode : Lossy
Stream size : 152 MiB (2%)
Title : MVO – Кармен Видео
Language : Russian
Default : Yes
Forced : No
Audio #2
ID : 3
Format : AC-3
Format/Info : Audio Coding 3
Mode extension : CM (complete main)
Format settings, Endianness : Big
Codec ID : A_AC3
Duration : 1h 50mn
Bit rate mode : Constant
Bit rate : 192 Kbps
Channel(s) : 2 channels
Channel positions : Front: L R
Sampling rate : 48.0 KHz
Bit depth : 16 bits
Compression mode : Lossy
Stream size : 152 MiB (2%)
Title : MVO – Домашний
Language : Russian
Default : No
Forced : No
Audio #3
ID : 4
Format : FLAC
Format/Info : Free Lossless Audio Codec
Codec ID : A_FLAC
Duration : 1h 50mn
Bit rate mode : Variable
Channel(s) : 1 channel
Sampling rate : 48.0 KHz
Bit depth : 16 bits
Title : Original
Writing library : libFLAC 1.2.1 (UTC 2007-09-17)
Language : French
Default : No
Forced : No
Audio #4
ID : 5
Format : AAC
Format/Info : Advanced Audio Codec
Format profile : LC
Codec ID : A_AAC
Duration : 1h 50mn
Channel(s) : 1 channel
Channel positions : Front: C
Sampling rate : 48.0 KHz
Compression mode : Lossy
Title : Commentary by actor Jean-Louis Trintignant
Language : French
Default : No
Forced : No
Text #1
ID : 6
Format : UTF-8
Codec ID : S_TEXT/UTF8
Codec ID/Info : UTF-8 Plain Text
Title : R5
Language : Russian
Default : No
Forced : No
Text #2
ID : 7
Format : UTF-8
Codec ID : S_TEXT/UTF8
Codec ID/Info : UTF-8 Plain Text
Language : English
Default : No
Forced : No
Text #3
ID : 8
Format : UTF-8
Codec ID : S_TEXT/UTF8
Codec ID/Info : UTF-8 Plain Text
Title : SDH
Language : French
Default : No
Forced : No
Text #4
ID : 9
Format : PGS
Muxing mode : zlib
Codec ID : S_HDMV/PGS
Codec ID/Info : The same subtitle format used on BDs/HD-DVDs
Title : PSDH
Language : French
Default : No
Forced : No
Menu
00:00:00.000 : en:Chapter 01
00:09:38.666 : en:Chapter 02
00:20:47.333 : en:Chapter 03
00:30:05.583 : en:Chapter 04
00:40:14.083 : en:Chapter 05
00:49:47.625 : en:Chapter 06
00:58:03.125 : en:Chapter 07
01:05:07.833 : en:Chapter 08
01:15:53.666 : en:Chapter 09
01:22:49.833 : en:Chapter 10
01:38:02.041 : en:Chapter 11
01:49:14.416 : en:Chapter 12



Показать сообщения:    

Текущее время: 08-Дек 17:25

Часовой пояс: UTC + 3


Вы не можете начинать темы
Вы не можете отвечать на сообщения
Вы не можете редактировать свои сообщения
Вы не можете удалять свои сообщения
Вы не можете голосовать в опросах
Вы не можете прикреплять файлы к сообщениям
Вы не можете скачивать файлы