Караваджо / Caravaggio (Дерек Джармен / Derek Jarman) [1986, Великобритания, драма, биография, история, BDRip 720p] MVO + DVO + VO + Sub Rus, Eng + Original Eng + Comm


 

[Цитировать]

Караваджо / Caravaggio
Страна: Великобритания
Жанр: драма, биография, история
Год выпуска: 1986
Продолжительность: 01:33:15
Перевод 1: Профессиональный (многоголосый закадровый)
Перевод 2: Профессиональный (двухголосый закадровый) - Видеосервис
Перевод 3: Одноголосый закадровый
Cубтитры: русские, английские
Оригинальная аудиодорожка: английский
Режиссер: Дерек Джармен / Derek Jarman
В ролях: Тильда Суинтон, Найджел Терри, Ноам Алмас, Доун Арчибальд, Шон Бин, Джек Биркетт, Сэди Корр, Уна Брэндон-Джонс, Имоджен Клер, Робби Колтрейн
Описание: Здесь красота тела важнее пола, а любовь беспощаднее дружбы. Караваджо создавал шедевры со скоростью клипмейкера. И при этом не вылезал из драк, дебошей и бисексуальных оргий под самым носом Ватикана.
Доп. информация:


За многоголоску спасибо sergdoc
За двухголоску спасибо ralf124c41+
За одноголоску спасибо sontori (к сожалению, качество дорожки оставляет желать лучшего)
Сэмпл: http://sendfile.su/1057241
Тип релиза: BDRip 720p (Исходник: Caravaggio 1986 1080p JPN Blu-ray AVC LPCM 2.0)
Контейнер: MKV
Видео: AVC, 1280x690, L4.1, 23.976fps, 10284kbps
Аудио 1: Russian: AC3, 48000Hz, 1ch, 192kbps - MVO
Аудио 2: Russian: AC3, 48000Hz, 2ch, 192kbps - Видеосервис
Аудио 3: Russian: AC3, 48000Hz, 2ch, 192kbps - VO
Аудио 4: English: FLAC, 48000Hz, 2ch, 246kbps, 16bit
Аудио 5: English: AC3, 48000Hz, 1ch, 192kbps - commentary with cinematographer Gabriel Beristain
Формат субтитров: softsub (SRT)

MediaInfo

Общее
Уникальный идентификатор : 175168335227083308760163473636764845579 (0x83C831B7E488DE11A88F34E785E2860B)
Полное имя : T:\Caravaggio (BDRip 720p).mkv
Формат : Matroska
Версия формата : Version 4 / Version 2
Размер файла : 7,36 Гбайт
Продолжительность : 1 ч. 33 м.
Режим общего битрейта : Переменный
Общий поток : 11,3 Мбит/сек
Название фильма : Caravaggio for rutracker.org
Дата кодирования : UTC 2014-12-05 15:58:13
Программа кодирования : mkvmerge v7.1.0 ('Good Love') 32bit built on Jul 27 2014 12:59:18
Библиотека кодирования : libebml v1.3.0 + libmatroska v1.4.1
DURATION : 01:29:03.385000000
NUMBER_OF_FRAMES : 468
NUMBER_OF_BYTES : 16006
_STATISTICS_WRITING_APP : mkvmerge v7.1.0 ('Good Love') 32bit built on Jul 27 2014 12:59:18
_STATISTICS_WRITING_DATE_UTC : 2014-12-05 15:58:13
_STATISTICS_TAGS : BPS DURATION NUMBER_OF_FRAMES NUMBER_OF_BYTES
Видео
Идентификатор : 1
Формат : AVC
Формат/Информация : Advanced Video Codec
Профиль формата : High@L4.1
Параметр CABAC формата : Да
Параметр ReFrames формата : 9 кадров
Идентификатор кодека : V_MPEG4/ISO/AVC
Продолжительность : 1 ч. 33 м.
Ширина : 1280 пикселей
Высота : 690 пикселей
Соотношение сторон : 1,85:1
Режим частоты кадров : Постоянный
Частота кадров : 23,976 кадра/сек
Цветовое пространство : YUV
Субдискретизация насыщенности : 4:2:0
Битовая глубина : 8 бит
Тип развёртки : Прогрессивная
Библиотека кодирования : x264 core 142 r2491 24e4fed
Настройки программы : cabac=1 / ref=9 / deblock=1:-3:-3 / analyse=0x3:0x133 / me=umh / subme=10 / psy=1 / psy_rd=1.10:0.00 / mixed_ref=1 / me_range=24 / chroma_me=1 / trellis=2 / 8x8dct=1 / cqm=0 / deadzone=21,11 / fast_pskip=0 / chroma_qp_offset=-2 / threads=12 / lookahead_threads=3 / sliced_threads=0 / nr=0 / decimate=0 / interlaced=0 / bluray_compat=0 / constrained_intra=0 / bframes=14 / b_pyramid=2 / b_adapt=2 / b_bias=0 / direct=3 / weightb=1 / open_gop=0 / weightp=2 / keyint=240 / keyint_min=23 / scenecut=40 / intra_refresh=0 / rc_lookahead=40 / rc=crf / mbtree=0 / crf=17.3 / qcomp=0.70 / qpmin=0 / qpmax=69 / qpstep=4 / vbv_maxrate=50000 / vbv_bufsize=62500 / crf_max=0.0 / nal_hrd=none / filler=0 / ip_ratio=1.30 / pb_ratio=1.20 / aq=2:0.60
Язык : English
Default : Да
Forced : Нет
Основные цвета : BT.709
Характеристики трансфера : BT.709
Коэффициенты матрицы : BT.709
Аудио #1
Идентификатор : 2
Формат : AC-3
Формат/Информация : Audio Coding 3
Расширение режима : CM (complete main)
Параметр Endianness формата : Big
Идентификатор кодека : A_AC3
Продолжительность : 1 ч. 33 м.
Вид битрейта : Постоянный
Битрейт : 192 Кбит/сек
Каналы : 1 канал
Расположение каналов : Front: C
Частота : 48,0 КГц
Битовая глубина : 16 бит
Метод сжатия : С потерями
Размер потока : 128 Мбайт (2%)
Заголовок : MVO №1
Язык : Russian
Default : Да
Forced : Нет
Аудио #2
Идентификатор : 3
Формат : AC-3
Формат/Информация : Audio Coding 3
Расширение режима : CM (complete main)
Параметр Endianness формата : Big
Идентификатор кодека : A_AC3
Продолжительность : 1 ч. 33 м.
Вид битрейта : Постоянный
Битрейт : 192 Кбит/сек
Каналы : 2 канала
Расположение каналов : Front: L R
Частота : 48,0 КГц
Битовая глубина : 16 бит
Метод сжатия : С потерями
Размер потока : 128 Мбайт (2%)
Заголовок : MVO №2
Язык : Russian
Default : Нет
Forced : Нет
Аудио #3
Идентификатор : 4
Формат : AC-3
Формат/Информация : Audio Coding 3
Расширение режима : CM (complete main)
Параметр Endianness формата : Big
Идентификатор кодека : A_AC3
Продолжительность : 1 ч. 33 м.
Вид битрейта : Постоянный
Битрейт : 192 Кбит/сек
Каналы : 2 канала
Расположение каналов : Front: L R
Частота : 48,0 КГц
Битовая глубина : 16 бит
Метод сжатия : С потерями
Размер потока : 128 Мбайт (2%)
Заголовок : VO
Язык : Russian
Default : Нет
Forced : Нет
Аудио #4
Идентификатор : 5
Формат : FLAC
Формат/Информация : Free Lossless Audio Codec
Идентификатор кодека : A_FLAC
Продолжительность : 1 ч. 33 м.
Вид битрейта : Переменный
Каналы : 2 канала
Частота : 48,0 КГц
Битовая глубина : 16 бит
Библиотека кодирования : libFLAC 1.3.0 (UTC 2013-05-26)
Язык : English
Default : Нет
Forced : Нет
Аудио #5
Идентификатор : 6
Формат : AC-3
Формат/Информация : Audio Coding 3
Расширение режима : CM (complete main)
Параметр Endianness формата : Big
Идентификатор кодека : A_AC3
Продолжительность : 1 ч. 33 м.
Вид битрейта : Постоянный
Битрейт : 192 Кбит/сек
Каналы : 2 канала
Расположение каналов : Front: L R
Частота : 48,0 КГц
Битовая глубина : 16 бит
Метод сжатия : С потерями
Размер потока : 128 Мбайт (2%)
Заголовок : commentary with cinematographer Gabriel Beristain
Язык : English
Default : Нет
Forced : Нет
Текст #1
Идентификатор : 7
Формат : UTF-8
Идентификатор кодека : S_TEXT/UTF8
Идентификатор кодека/Информация : UTF-8 Plain Text
Язык : Russian
Default : Нет
Forced : Нет
Текст #2
Идентификатор : 8
Формат : UTF-8
Идентификатор кодека : S_TEXT/UTF8
Идентификатор кодека/Информация : UTF-8 Plain Text
Язык : English
Default : Нет
Forced : Нет
Меню
00:00:00.000 : en:00:00:00.000
00:08:47.485 : en:00:08:47.485
00:19:18.616 : en:00:19:18.616
00:27:17.010 : en:00:27:17.010
00:40:48.863 : en:00:40:48.863
00:51:52.526 : en:00:51:52.526
01:01:39.362 : en:01:01:39.362
01:07:58.574 : en:01:07:58.574
01:18:51.810 : en:01:18:51.810

x264 log

x264 [info]: frame I:865 Avg QP:16.32 size:141232
x264 [info]: frame P:23439 Avg QP:17.57 size: 71684
x264 [info]: frame B:109855 Avg QP:19.06 size: 49075
x264 [info]: consecutive B-frames: 1.0% 0.6% 3.5% 6.2% 13.4% 51.6% 9.5% 4.7% 2.2% 2.3% 1.4% 1.6% 0.7% 0.6% 0.8%

Сравнения

Source vs. Encode






Показать сообщения:    

Текущее время: 09-Дек 14:38

Часовой пояс: UTC + 3


Вы не можете начинать темы
Вы не можете отвечать на сообщения
Вы не можете редактировать свои сообщения
Вы не можете удалять свои сообщения
Вы не можете голосовать в опросах
Вы не можете прикреплять файлы к сообщениям
Вы не можете скачивать файлы