Приключение / L'avventura (Микеланджело Антониони / Michelangelo Antonioni) [1960, Италия, Франция, драма, BDRip 720p] [Criterion Collection] DVO + Sub (Rus, Eng) + Original Ita


 

[Цитировать]

Приключение / L'avventura
Страна: Италия, Франция
Жанр: драма
Год выпуска: 1960
Продолжительность: 02:23:06
Перевод: Профессиональный (двухголосый закадровый) Film Prestige
Cубтитры: русские, английские
Оригинальная аудиодорожка: итальянский-Режиссер: Микеланджело Антониони / Michelangelo Antonioni
В ролях: Габриэль Ферцетти, Моника Витти, Леа Массари, Доминик Бланшар, Ренцо Риччи, Джеймс Эддамс, Дороти Де Полиоло, Лелио Луттацци, Джованни Петруччи, Эсмеральда Русполи, Анджела Томмази Ди Лампедуза
Описание: Во время круиза изнывающие от скуки светские персонажи оказываются вовлечёнными в «приключение». Анна, дочь известного дипломата, исчезает среди бела дня на необитаемом острове. Поначалу спутники теряются в догадках относительно её судьбы, однако наметившаяся детективная интрига вскоре уступает место новым отношениям, которые пытаются выстроить любовник пропавшей женщины, Сандро, и её подруга Клаудия...
IMDb || КиноПоиск-Тип релиза: BDRip 720p [DON]
Контейнер: MKV
Видео: x264/AVC, 1280x692 at 23.976 fps, 8793 kbps
Аудио#1: Russian: 48 kHz, AC3, 2.0 ch, 160 kbps
Аудио#2: Italian: 48 kHz, AC3, 1.0 ch, 640 kbps
Аудио#3: English: 48 kHz, AAC, 1.0 ch, 64 kbps |Commentary
Формат субтитров: softsub (SRT)
Сэмпл

MediaInfo

General
Unique ID : 254853852996876057814544192339592576193 (0xBFBB1112C96F34918F462042107F7CC1)
Complete name : I:\Приключение\L'avventura.1960.Criterion.720p-DON. rutracker.mkv
Format : Matroska
Format version : Version 2
File size : 9.82 GiB
Duration : 2h 23mn
Overall bit rate : 9 826 Kbps
Movie name : Release for RuTracker
Writing application : mkvmerge v5.0.1 ('Es ist Sommer') built on Nov 6 2011 16:23:40
Writing library : libebml v1.2.2 + libmatroska v1.3.0
Video
ID : 1
Format : AVC
Format/Info : Advanced Video Codec
Format profile : High@L4.1
Format settings, CABAC : Yes
Format settings, ReFrames : 9 frames
Codec ID : V_MPEG4/ISO/AVC
Duration : 2h 23mn
Width : 1 280 pixels
Height : 692 pixels
Display aspect ratio : 1.85:1
Frame rate mode : Constant
Frame rate : 23.976 fps
Color space : YUV
Chroma subsampling : 4:2:0
Bit depth : 8 bits
Scan type : Progressive
Title : L'avventura.1960.Criterion.720p-DON. rutracker
Writing library : x264 core 142 r2431+42 c69a006 tMod [8-bit@all X86_64]
Encoding settings : cabac=1 / ref=9 / deblock=1:-3:-3 / analyse=0x3:0x133 / me=tesa / subme=10 / psy=1 / fade_compensate=0.00 / psy_rd=0.95:0.00 / mixed_ref=1 / me_range=32 / chroma_me=1 / trellis=2 / 8x8dct=1 / cqm=0 / deadzone=21,11 / fast_pskip=0 / chroma_qp_offset=-2 / threads=12 / lookahead_threads=2 / sliced_threads=0 / nr=0 / decimate=1 / interlaced=0 / bluray_compat=0 / constrained_intra=0 / fgo=0 / bframes=7 / b_pyramid=2 / b_adapt=2 / b_bias=0 / direct=3 / weightb=1 / open_gop=0 / weightp=2 / keyint=241 / keyint_min=23 / scenecut=40 / intra_refresh=0 / rc_lookahead=60 / rc=crf / mbtree=0 / crf=17.4000 / qcomp=0.70 / qpmin=0:0:0 / qpmax=69:69:69 / qpstep=4 / vbv_maxrate=50000 / vbv_bufsize=62500 / crf_max=0.0 / nal_hrd=none / filler=0 / ip_ratio=1.40 / pb_ratio=1.30 / aq=4:0.80 / aq-sensitivity=10.00 / aq-factor=1.00:1.00:1.00 / aq2=0 / aq3=0
Language : Italian
Default : Yes
Forced : No
Audio #1
ID : 2
Format : AC-3
Format/Info : Audio Coding 3
Mode extension : CM (complete main)
Format settings, Endianness : Big
Codec ID : A_AC3
Duration : 2h 23mn
Bit rate mode : Constant
Bit rate : 160 Kbps
Channel(s) : 2 channels
Channel positions : Front: L R
Sampling rate : 48.0 KHz
Bit depth : 16 bits
Compression mode : Lossy
Stream size : 164 MiB (2%)
Language : Russian
Default : Yes
Forced : No
Audio #2
ID : 3
Format : AC-3
Format/Info : Audio Coding 3
Mode extension : CM (complete main)
Format settings, Endianness : Big
Codec ID : A_AC3
Duration : 2h 23mn
Bit rate mode : Constant
Bit rate : 640 Kbps
Channel(s) : 1 channel
Channel positions : Front: C
Sampling rate : 48.0 KHz
Bit depth : 16 bits
Compression mode : Lossy
Stream size : 655 MiB (7%)
Language : Italian
Default : No
Forced : No
Audio #3
ID : 4
Format : AAC
Format/Info : Advanced Audio Codec
Format profile : LC
Codec ID : A_AAC
Duration : 2h 23mn
Channel(s) : 1 channel
Channel positions : Front: C
Sampling rate : 48.0 KHz
Compression mode : Lossy
Delay relative to video : 9ms
Title : commentary
Language : English
Default : No
Forced : No
Text #1
ID : 5
Format : UTF-8
Codec ID : S_TEXT/UTF8
Codec ID/Info : UTF-8 Plain Text
Language : Russian
Default : No
Forced : No
Text #2
ID : 6
Format : UTF-8
Codec ID : S_TEXT/UTF8
Codec ID/Info : UTF-8 Plain Text
Language : English
Default : No
Forced : No
Menu #1
00:00:00.000 : en:Opening Credits
00:02:20.515 : en:The Old and the New World
00:04:30.270 : en:"Good-Bye Cruise"
00:06:04.656 : en:"Let Her Wait"
00:10:18.910 : en:"Shall We Swim?"
00:14:58.356 : en:"Shark!"
00:18:05.584 : en:"Which Shall I Wear?"
00:20:39.530 : en:"There's No Spark"
00:22:42.778 : en:"I Don't Feel You Anymore"
00:26:01.852 : en:"And Anna?"
00:37:52.729 : en:The Storm
00:42:08.985 : en:"You Love Anna"
00:48:58.435 : en:"An Ancient Vase"
00:53:03.722 : en:"Here's Anna's Father"
00:56:44.735 : en:"I'll Join You at the Montaldos"
00:59:48.585 : en:"And the Other Boat?"
01:02:48.556 : en:"When Will We See Each Other, Then?"
01:06:04.127 : en:"Come Away with Me"
01:11:20.109 : en:"My Name Is Gloria Perkins"
01:15:32.027 : en:"A Lovely Clinic for Nervous Disorders"
01:17:37.486 : en:"How Does It Look?"
01:20:16.061 : en:"I'd Make You a Beautiful Portrait"
01:25:08.312 : en:"I'm Not Coming"
01:27:18.108 : en:"Picture of Marital Bliss"
01:31:32.779 : en:"It's Not a Town, It's a Cemetery"
01:38:06.756 : en:"A Can of Paint"
01:42:32.897 : en:"Shall We Get Married?"
01:46:55.451 : en:"I Was Twenty-Three Once"
01:53:13.412 : en:"I Feel as Thought I Don't Know You"
01:56:55.175 : en:"A Sensible Childhood"
02:01:11.014 : en:"I'm Too Sleepy"
02:06:57.151 : en:"One... Two... Three..."
02:12:57.136 : en:"I'm Afraid Anna's Back"
02:16:04.865 : en:"A Small Souvenir"
02:18:29.218 : en:Conclusion
Menu #2
00:00:00.054 : en:00:00:00.054

Скриншоты




Показать сообщения:    

Текущее время: 08-Дек 14:52

Часовой пояс: UTC + 3


Вы не можете начинать темы
Вы не можете отвечать на сообщения
Вы не можете редактировать свои сообщения
Вы не можете удалять свои сообщения
Вы не можете голосовать в опросах
Вы не можете прикреплять файлы к сообщениям
Вы не можете скачивать файлы