Жаворонки на нити / Жаворонки на нитях / Skrivanci na niti / Larks on a String (Иржи Менцель / Jiri Menzel) [1969, Чехословакия, комедия, HDTVRip 720p] DVO (НТВ+) + Sub Eng + Original Cze


 

[Цитировать]

Жаворонки на нитях / Skrivanci na niti / Larks on a String
Страна: Чехословакия
Жанр: комедия
Год выпуска: 1969
Продолжительность: 01:30:31
Перевод: Профессиональный (двухголосый закадровый) НТВ+
Cубтитры: английские
Оригинальная аудиодорожка: чешский
Режиссер: Иржи Менцель / Jiri Menzel
В ролях: Рудольф Грушинский, Властимил Бродский, Вацлав Некар, Итка Зеленогорска, Ярослав Саторански, Владимир Шмерал, Фердинанд Крута, Франтишек Ржегак, Леош Сухаршипа, Владимир Птачек
Описание: Сталелитейные заводы в районе Кладно под Прагой, 50-е гг. На огромной свалке железного лома сосуществуют «недобровольные добровольцы» — рабочие (бывшие предприниматели, интеллектуалы и все те, кому народный режим дал возможность трудового перевоспитания) и женщины, осуждённые за попытку нелегально пересечь границу. Будни «великой эпохи» наполнены большими и малыми событиями, в которых есть место и абсурдному парадоксу, и чёрному юмору…
Доп. информация:


Тип релиза: HDTVRip 720p| DON | sample
Контейнер: MKV
Видео: H.264/AVC, 1196x720, 1.661:1, 25.00fps, 5182 Kbps
Аудио #1 RUS: DD 2.0, 48 kHz, 256 kbps
Аудио #2 CZE: DD 2.0, 48 kHz, 224 kbps
Формат субтитров: softsub (SRT)

MediaInfo

General
Unique ID                                : 211807970150099796116919434671220895129 (0x9F58BB310CD4F351A2B98D80121CAD99)
Complete name                            : Skrivanci.na.niti.1969.720p.HDTV.x264.rus.cze.mkv
Format                                   : Matroska
Format version                           : Version 4 / Version 2
File size                                : 3.65 GiB
Duration                                 : 1h 30mn
Overall bit rate                         : 5 777 Kbps
Movie name                               : Skřivánci na niti (1969)
Encoded date                             : UTC 2014-11-24 15:54:31
Writing application                      : mkvmerge v7.1.0 ('Good Love') 64bit built on Jul 27 2014 13:06:55
Writing library                          : libebml v1.3.0 + libmatroska v1.4.1
DURATION                                 : 01:30:31.616000000
NUMBER_OF_FRAMES                         : 169738
NUMBER_OF_BYTES                          : 173811712
_STATISTICS_WRITING_APP                  : mkvmerge v7.1.0 ('Good Love') 64bit built on Jul 27 2014 13:06:55
_STATISTICS_WRITING_DATE_UTC             : 2014-11-24 15:54:31
_STATISTICS_TAGS                         : BPS DURATION NUMBER_OF_FRAMES NUMBER_OF_BYTES
Video
ID                                       : 1
Format                                   : AVC
Format/Info                              : Advanced Video Codec
Format profile                           : High@L4.1
Format settings, CABAC                   : Yes
Format settings, ReFrames                : 9 frames
Codec ID                                 : V_MPEG4/ISO/AVC
Duration                                 : 1h 30mn
Bit rate                                 : 5 182 Kbps
Width                                    : 1 196 pixels
Height                                   : 720 pixels
Display aspect ratio                     : 1.661
Frame rate mode                          : Constant
Frame rate                               : 25.000 fps
Color space                              : YUV
Chroma subsampling                       : 4:2:0
Bit depth                                : 8 bits
Scan type                                : Progressive
Bits/(Pixel*Frame)                       : 0.241
Stream size                              : 3.28 GiB (90%)
Writing library                          : x264 core 142 r2431+42 c69a006 tMod [8-bit@all X86_64]
Encoding settings                        : cabac=1 / ref=9 / deblock=1:-3:-3 / analyse=0x3:0x133 / me=tesa / subme=10 / psy=1 / fade_compensate=0.00 / psy_rd=1.05:0.00 / mixed_ref=1 / me_range=24 / chroma_me=1 / trellis=2 / 8x8dct=1 / cqm=0 / deadzone=21,11 / fast_pskip=0 / chroma_qp_offset=-2 / threads=12 / lookahead_threads=2 / sliced_threads=0 / nr=0 / decimate=0 / interlaced=0 / bluray_compat=0 / constrained_intra=0 / fgo=0 / bframes=8 / b_pyramid=2 / b_adapt=2 / b_bias=0 / direct=3 / weightb=1 / open_gop=0 / weightp=2 / keyint=250 / keyint_min=25 / scenecut=40 / intra_refresh=0 / rc_lookahead=60 / rc=crf / mbtree=0 / crf=16.0000 / qcomp=0.65 / qpmin=0:0:0 / qpmax=69:69:69 / qpstep=4 / vbv_maxrate=62500 / vbv_bufsize=78125 / crf_max=0.0 / nal_hrd=none / filler=0 / ip_ratio=1.40 / pb_ratio=1.30 / aq=4:0.80 / aq-sensitivity=10.00 / aq-factor=1.00:1.00:1.00 / aq2=0 / aq3=0
Language                                 : Czech
Default                                  : Yes
Forced                                   : No
Audio #1
ID                                       : 2
Format                                   : AC-3
Format/Info                              : Audio Coding 3
Mode extension                           : CM (complete main)
Format settings, Endianness              : Big
Codec ID                                 : A_AC3
Duration                                 : 1h 30mn
Bit rate mode                            : Constant
Bit rate                                 : 256 Kbps
Channel(s)                               : 2 channels
Channel positions                        : Front: L R
Sampling rate                            : 48.0 KHz
Bit depth                                : 16 bits
Compression mode                         : Lossy
Stream size                              : 166 MiB (4%)
Title                                    : DVO [НТВ+]
Language                                 : Russian
Default                                  : Yes
Forced                                   : No
Audio #2
ID                                       : 3
Format                                   : AC-3
Format/Info                              : Audio Coding 3
Mode extension                           : CM (complete main)
Format settings, Endianness              : Big
Codec ID                                 : A_AC3
Duration                                 : 1h 30mn
Bit rate mode                            : Constant
Bit rate                                 : 224 Kbps
Channel(s)                               : 2 channels
Channel positions                        : Front: L R
Sampling rate                            : 48.0 KHz
Bit depth                                : 16 bits
Compression mode                         : Lossy
Stream size                              : 145 MiB (4%)
Language                                 : Czech
Default                                  : No
Forced                                   : No
Text
ID                                       : 4
Format                                   : UTF-8
Codec ID                                 : S_TEXT/UTF8
Codec ID/Info                            : UTF-8 Plain Text
Language                                 : English
Default                                  : No
Forced                                   : No
Menu
00:00:00.000                             : cs:Představování
00:05:46.480                             : cs:Natáčení
00:11:18.640                             : cs:Kopečkářky
00:17:19.120                             : cs:Tak se vožeňte!
00:23:30.120                             : cs:Svatební dar
00:27:16.680                             : cs:Co byste chtěla?
00:34:00.840                             : cs:Čistota půl zdraví
00:41:50.400                             : cs:V noci
00:46:19.200                             : cs:Pomoc
00:54:37.440                             : cs:Báseň
01:00:34.560                             : cs:Pionýři
01:05:47.040                             : cs:Opuštění stanoviště
01:12:53.640                             : cs:Svatba
01:19:11.880                             : cs:Jdeme vítat!
01:26:01.320                             : cs:Pravda



Показать сообщения:    

Текущее время: 05-Дек 05:30

Часовой пояс: UTC + 3


Вы не можете начинать темы
Вы не можете отвечать на сообщения
Вы не можете редактировать свои сообщения
Вы не можете удалять свои сообщения
Вы не можете голосовать в опросах
Вы не можете прикреплять файлы к сообщениям
Вы не можете скачивать файлы