Бразилия / Brazil (Терри Гиллиам / Terry Gilliam) [1985, Великобритания, антиутопия, BDRip 720p] [Criterion Collection] [Director\'s Cut] 4x MVO + DVO + 4x AVO + Sub (Rus, Eng) + Original Eng


 

[Цитировать]

Бразилия / Brazil
Страна: Великобритания
Жанр: антиутопия
Год выпуска: 1985
Продолжительность: 02:23:26
Перевод: Профессиональный (многоголосый закадровый) Blu-ray EUR
Перевод: Профессиональный (многоголосый закадровый) Позитив-Мультимедиа
Перевод: Профессиональный (многоголосый закадровый)
Перевод: Профессиональный (многоголосый закадровый) ТВ3
Перевод: Профессиональный (двухголосый закадровый) корпорация Видеофильм
Перевод: Авторский (одноголосый закадровый) Сергей Визгунов
Перевод: Авторский (одноголосый закадровый) Андрей Гаврилов
Перевод: Авторский (одноголосый закадровый) Григорий Либергал
Перевод: Авторский (одноголосый закадровый) Лёша прапорщик
Cубтитры: русские (2 вида), английские
Оригинальная аудиодорожка: английский-Режиссер: Терри Гиллиам / Terry Gilliam
В ролях: Джонатан Прайс, Майкл Палин, Ким Грейст, Роберт Де Ниро, Кэтрин Хелмонд, Йен Холм, Ян Ричардсон, Питер Вон, Боб Хоскинс, Деррик О'Коннор, Чарлз МакКеон, Барбара Хикс, Кэтрин Погсон, Джим Бродбент
Описание: Картина тоталитарного общества будущего, наполненного всеобщим страхом перед мнимыми врагами и реальными репрессиями безжалостной государственной машины. Рядовой клерк службы информации и безопасности Сэм Лоури оказывается вовлеченным в заговор, который объединяет ренегатов, правительственных палачей и борющихся с режимом террористов. Общество стоит на пороге гибели и готово рухнуть под тяжестью собственной бюрократической системы.
IMDb || КиноПоиск-Тип релиза: BDRip 720p [CtrlHD]
Контейнер: MKV
Видео: x264/AVC, 1280x720 at 23.976 fps, 12767 Mbps
Аудио#1: Russian: 48 kHz, AC3, 2.0 ch, 224 kbps |Blu-ray EUR
Аудио#2: Russian: 48 kHz, AC3, 2.0 ch, 192 kbps |Позитив-Мультимедиа
Аудио#3: Russian: 48 kHz, AC3, 2.0 ch, 192 kbps
Аудио#4: Russian: 48 kHz, AC3, 2.0 ch, 192 kbps |ТВ3
Аудио#5: Russian: 48 kHz, AC3, 2.0 ch, 192 kbps |корпорация Видеофильм
Аудио#6: Russian: 48 kHz, AC3, 2.0 ch, 192 kbps |Визгунов
Аудио#7: Russian: 48 kHz, AC3, 2.0 ch, 192 kbps |Гаврилов
Аудио#8: Russian: 48 kHz, AC3, 2.0 ch, 192 kbps |Либергал
Аудио#9: Russian: 48 kHz, AC3, 2.0 ch, 640 kbps |Лёша прапорщик
Аудио#10: English: 48 kHz, AC3, 2.0 ch, 640 kbps
Аудио#11: English: 48 kHz, AC3, 1.0 ch, 192 kbps |Commentary
Формат субтитров: softsub (SRT)
Сэмпл

Дополнительно

Отечественные дорожки из раздач: Позитив-Мультимедиа, корпорация Видеофильм, ТВ3, Визгунов. Авторам спасибо.
На непереведенные фрагменты в дорожке Гаврилова и ТВ3 русские субтитры.

MediaInfo

General
Unique ID : 236824732059565017618717712851230361788 (0xB22AC8C82E01A484BFB7371BC95988BC)
Complete name : I:\Бразилия\Brazil.Director's.Cut.1985.Criterion.720p-CtrlHD. rutracker.mkv
Format : Matroska
Format version : Version 2
File size : 15.8 GiB
Duration : 2h 23mn
Overall bit rate : 15.8 Mbps
Movie name : Release for RuTracker
Writing application : mkvmerge v5.0.1 ('Es ist Sommer') built on Nov 6 2011 16:23:40
Writing library : libebml v1.2.2 + libmatroska v1.3.0
Video
ID : 1
Format : AVC
Format/Info : Advanced Video Codec
Format profile : High@L4.1
Format settings, CABAC : Yes
Format settings, ReFrames : 9 frames
Codec ID : V_MPEG4/ISO/AVC
Duration : 2h 23mn
Bit rate : 12.5 Mbps
Width : 1 280 pixels
Height : 720 pixels
Display aspect ratio : 16:9
Frame rate mode : Constant
Frame rate : 23.976 fps
Color space : YUV
Chroma subsampling : 4:2:0
Bit depth : 8 bits
Scan type : Progressive
Bits/(Pixel*Frame) : 0.564
Stream size : 12.5 GiB (79%)
Title : Brazil.Director's.Cut.1985.Criterion.720p-CtrlHD. rutracker
Writing library : x264 core 128 r2216kMod 198a7ea
Encoding settings : cabac=1 / ref=9 / deblock=1:-3:-3 / analyse=0x3:0x133 / me=umh / subme=11 / psy=1 / fade_compensate=0.00 / psy_rd=1.20:0.05 / mixed_ref=1 / me_range=32 / chroma_me=1 / trellis=2 / 8x8dct=1 / cqm=0 / deadzone=21,11 / fast_pskip=0 / chroma_qp_offset=-3 / threads=6 / lookahead_threads=1 / sliced_threads=0 / nr=0 / decimate=0 / interlaced=0 / bluray_compat=0 / constrained_intra=0 / bframes=8 / b_pyramid=2 / b_adapt=2 / b_bias=0 / direct=3 / weightb=1 / open_gop=0 / weightp=2 / keyint=250 / keyint_min=23 / scenecut=40 / intra_refresh=0 / rc=crf / mbtree=0 / crf=18.0000 / qcomp=0.70 / qpmin=10 / qpmax=51 / qpstep=4 / ip_ratio=1.30 / pb_ratio=1.20 / aq=2:0.70
Language : English
Default : Yes
Forced : No
Audio #1
ID : 2
Format : AC-3
Format/Info : Audio Coding 3
Mode extension : CM (complete main)
Format settings, Endianness : Big
Codec ID : A_AC3
Duration : 2h 23mn
Bit rate mode : Constant
Bit rate : 224 Kbps
Channel(s) : 2 channels
Channel positions : Front: L R
Sampling rate : 48.0 KHz
Bit depth : 16 bits
Compression mode : Lossy
Stream size : 230 MiB (1%)
Title : многоголосый закадровый, Blu-Ray EUR
Language : Russian
Default : Yes
Forced : No
Audio #2
ID : 3
Format : AC-3
Format/Info : Audio Coding 3
Mode extension : CM (complete main)
Format settings, Endianness : Big
Codec ID : A_AC3
Duration : 2h 23mn
Bit rate mode : Constant
Bit rate : 192 Kbps
Channel(s) : 2 channels
Channel positions : Front: L R
Sampling rate : 48.0 KHz
Bit depth : 16 bits
Compression mode : Lossy
Stream size : 197 MiB (1%)
Title : многоголосый закадровый, "Позитив-Мультимедия"
Language : Russian
Default : No
Forced : No
Audio #3
ID : 4
Format : AC-3
Format/Info : Audio Coding 3
Mode extension : CM (complete main)
Format settings, Endianness : Big
Codec ID : A_AC3
Duration : 2h 23mn
Bit rate mode : Constant
Bit rate : 192 Kbps
Channel(s) : 2 channels
Channel positions : Front: L R
Sampling rate : 48.0 KHz
Bit depth : 16 bits
Compression mode : Lossy
Stream size : 197 MiB (1%)
Title : многоголосый закадровый
Language : Russian
Default : No
Forced : No
Audio #4
ID : 5
Format : AC-3
Format/Info : Audio Coding 3
Mode extension : CM (complete main)
Format settings, Endianness : Big
Codec ID : A_AC3
Duration : 2h 23mn
Bit rate mode : Constant
Bit rate : 192 Kbps
Channel(s) : 2 channels
Channel positions : Front: L R
Sampling rate : 48.0 KHz
Bit depth : 16 bits
Compression mode : Lossy
Stream size : 197 MiB (1%)
Title : многоголосый закадровый, ТВ3
Language : Russian
Default : No
Forced : No
Audio #5
ID : 6
Format : AC-3
Format/Info : Audio Coding 3
Mode extension : CM (complete main)
Format settings, Endianness : Big
Codec ID : A_AC3
Duration : 2h 23mn
Bit rate mode : Constant
Bit rate : 192 Kbps
Channel(s) : 2 channels
Channel positions : Front: L R
Sampling rate : 48.0 KHz
Bit depth : 16 bits
Compression mode : Lossy
Stream size : 197 MiB (1%)
Title : двухголосый закадровый, "корпорация Видеофильм"
Language : Russian
Default : No
Forced : No
Audio #6
ID : 7
Format : AC-3
Format/Info : Audio Coding 3
Mode extension : CM (complete main)
Format settings, Endianness : Big
Codec ID : A_AC3
Duration : 2h 23mn
Bit rate mode : Constant
Bit rate : 192 Kbps
Channel(s) : 2 channels
Channel positions : Front: L R
Sampling rate : 48.0 KHz
Bit depth : 16 bits
Compression mode : Lossy
Stream size : 197 MiB (1%)
Title : авторский одноголосый, Сергей Визгунов
Language : Russian
Default : No
Forced : No
Audio #7
ID : 8
Format : AC-3
Format/Info : Audio Coding 3
Mode extension : CM (complete main)
Format settings, Endianness : Big
Codec ID : A_AC3
Duration : 2h 23mn
Bit rate mode : Constant
Bit rate : 192 Kbps
Channel(s) : 2 channels
Channel positions : Front: L R
Sampling rate : 48.0 KHz
Bit depth : 16 bits
Compression mode : Lossy
Stream size : 197 MiB (1%)
Title : авторский одноголосый, Андрей Гаврилов
Language : Russian
Default : No
Forced : No
Audio #8
ID : 9
Format : AC-3
Format/Info : Audio Coding 3
Mode extension : CM (complete main)
Format settings, Endianness : Big
Codec ID : A_AC3
Duration : 2h 23mn
Bit rate mode : Constant
Bit rate : 192 Kbps
Channel(s) : 2 channels
Channel positions : Front: L R
Sampling rate : 48.0 KHz
Bit depth : 16 bits
Compression mode : Lossy
Stream size : 197 MiB (1%)
Title : авторский одноголосый, Григорий Либергал
Language : Russian
Default : No
Forced : No
Audio #9
ID : 10
Format : AC-3
Format/Info : Audio Coding 3
Mode extension : CM (complete main)
Format settings, Endianness : Big
Codec ID : A_AC3
Duration : 2h 23mn
Bit rate mode : Constant
Bit rate : 640 Kbps
Channel(s) : 2 channels
Channel positions : Front: L R
Sampling rate : 48.0 KHz
Bit depth : 16 bits
Compression mode : Lossy
Stream size : 657 MiB (4%)
Title : авторский одноголосый, Лёша прапорщик
Language : Russian
Default : No
Forced : No
Audio #10
ID : 11
Format : AC-3
Format/Info : Audio Coding 3
Mode extension : CM (complete main)
Format settings, Endianness : Big
Codec ID : A_AC3
Duration : 2h 23mn
Bit rate mode : Constant
Bit rate : 640 Kbps
Channel(s) : 2 channels
Channel positions : Front: L R
Sampling rate : 48.0 KHz
Bit depth : 16 bits
Compression mode : Lossy
Stream size : 657 MiB (4%)
Language : English
Default : No
Forced : No
Audio #11
ID : 12
Format : AC-3
Format/Info : Audio Coding 3
Mode extension : CM (complete main)
Format settings, Endianness : Big
Codec ID : A_AC3
Duration : 2h 23mn
Bit rate mode : Constant
Bit rate : 192 Kbps
Channel(s) : 1 channel
Channel positions : Front: C
Sampling rate : 48.0 KHz
Bit depth : 16 bits
Compression mode : Lossy
Stream size : 197 MiB (1%)
Title : Commentary
Language : English
Default : No
Forced : No
Text #1
ID : 13
Format : UTF-8
Codec ID : S_TEXT/UTF8
Codec ID/Info : UTF-8 Plain Text
Title : #1
Language : Russian
Default : No
Forced : No
Text #2
ID : 14
Format : UTF-8
Codec ID : S_TEXT/UTF8
Codec ID/Info : UTF-8 Plain Text
Title : #2
Language : Russian
Default : No
Forced : No
Text #3
ID : 15
Format : UTF-8
Codec ID : S_TEXT/UTF8
Codec ID/Info : UTF-8 Plain Text
Title : на непереведенные фрагменты ТВ3
Language : Russian
Default : No
Forced : No
Text #4
ID : 16
Format : UTF-8
Codec ID : S_TEXT/UTF8
Codec ID/Info : UTF-8 Plain Text
Title : на непереведенные фрагменты Гаврилова
Language : Russian
Default : No
Forced : No
Text #5
ID : 17
Format : UTF-8
Codec ID : S_TEXT/UTF8
Codec ID/Info : UTF-8 Plain Text
Language : English
Default : No
Forced : No
Text #6
ID : 18
Format : UTF-8
Codec ID : S_TEXT/UTF8
Codec ID/Info : UTF-8 Plain Text
Title : SDH
Language : English
Default : No
Forced : No
Menu #1
00:00:00.000 : en:1. 8:49 p.m....Somewhere in the Twentieth Century
00:10:04.354 : en:2. Wrongful arrest
00:16:55.348 : en:3."Bon appétit!"
00:23:57.561 : en:4. Harry Tuttle, heating engineer
00:34:35.490 : en:5. Buttle's refund check
00:40:00.315 : en:6."Happiness, We're All in It Together"
00:47:32.850 : en:7."I don't know what I want"
00:51:27.793 : en:8. Emergency procedures
00:59:04.541 : en:9."Snip, snip, slice, slice"
01:05:57.787 : en:10. DZ-O15, the new boy
01:15:35.239 : en:11. Freelance subversion
01:25:53.440 : en:12."I've been dreaming of you"
01:31:51.965 : en:13. No sense of reality
01:41:41.053 : en:14."An empty desk is an efficient desk"
01:47:08.839 : en:15. Unnecessary repairs
01:51:06.159 : en:16. Saving Jill
01:57:45.600 : en:17."Care for a little necrophilia?"
02:01:28.656 : en:18."Wasting ministry time and paper"
02:11:42.770 : en:19."So pleased you could make it"
02:19:23.021 : en:20. Closing credits
Menu #2
00:00:00.000 : en:1."Why is it called Brazil?"
00:10:04.354 : en:2. Favorite tracking shot
00:16:55.348 : en:3. Shoe hats and food pictures
00:23:57.561 : en:4. An elaborate labyrinth
00:34:35.490 : en:5. Billing people for their torture
00:40:00.315 : en:6. A turning point
00:47:32.850 : en:7."Two halves of a whole personality"
00:51:27.793 : en:8. Pure silliness and going too far
00:59:04.541 : en:9. Mr. Helpmann, the crippled leader
01:05:57.787 : en:10. The world of shadows
01:15:35.239 : en:11. Ray Cooper and Michael Kamen
01:25:53.440 : en:12. The Sam Lowry character
01:31:51.965 : en:13. Rubber suits and model shots
01:41:41.053 : en:14. Talking evil with George Lucas
01:47:08.839 : en:15. Invasion of Sam's flat
01:51:06.159 : en:16. Gilliam's background
01:57:45.600 : en:17. The trick of filmmaking
02:01:28.656 : en:18. Shooting in the water tower
02:11:42.770 : en:19. The Felliniesque funeral
02:19:23.021 : en:20. American and European endings

Скриншоты




Показать сообщения:    

Текущее время: 04-Дек 06:48

Часовой пояс: UTC + 3


Вы не можете начинать темы
Вы не можете отвечать на сообщения
Вы не можете редактировать свои сообщения
Вы не можете удалять свои сообщения
Вы не можете голосовать в опросах
Вы не можете прикреплять файлы к сообщениям
Вы не можете скачивать файлы