Крепыш / Teddy Bear / 10 timer til Paradis (Мадс Маттисен / Mads Matthiesen) [2012, Дания, Драма, HDTV 1080i] Sub Rus + Original Dan


 

[Цитировать]

Крепыш / Teddy Bear / 10 timer til Paradis
Страна: Дания
Студия: SF Film Productin & Beofilm
Жанр: Драма
Год выпуска: 2012
Продолжительность: 01:30:00
Перевод: Субтитры
Cубтитры: русские
Оригинальная аудиодорожка: датский
Режиссер: Мадс Маттисен / Mads Matthiesen
В ролях: Ким Колд, Дэвид Уинтерс, Эльзебет Стеентофт, Ламаипорн Хоугор, Барбара Сатлер, Джон Уинтерс, Чанича Шиндеджаничакуль, Миа Мария Бэк, Пер Отто Берсанг Расмуссен, Ева Томпсон
Описание: Фильм-победитель фестиваля «Сандэнс». 38-летний бодибилдер Дэннис подрабатывает охранником и до сих пор живет с мамой. Он одинок и отправляется в Таиланд, чтобы там найти спутницу жизни. Местные девушки беспринципны и согласны на все. Но Дэннис ищет настоящую любовь!
Доп. информация:

скрытый текст

Датский режиссер 1976 года рождения Мадс Маттисен словно на чистовик выложил фильм размера полного метра, после первой (и единственной) короткометражки на ту же тему. Итак, наши дни, пригород Копенгагена, один дом и одна датская семья из двух человек — пожилая мать и очень взрослый сын. Ах, да, еще одна проблема — гиперопека матери, которая ставит крепкие замки на самостоятельности ее взрослого ребенка.
Деннис возрастом серьезнее тридцати лет, весом и ростом — еще более — профессиональный бодибилдер с призовыми местами. Мать, в свои лет шестьдесят, честно говоря, рядом с ним — комическая мелочь. Эта разница масштабов еще сильнее выявляет, что размер героев не имеет значения, когда речь идет о психологии.
Маленькая мама огромной фурией старательно делает сыну «хорошо». И, конечно, переходит ту грань, за которой любая забота становится тягостна. Тогда и возникает пресловутое «причинить добро любовью». Психологи называют это родительской гиперопекой. И в фильме мама всеми силами старается удержать свою семью и жизнь в привычной статике: она и сын — больше никого и никогда. И мягкий сердцем Деннис, конечно же, любящий свою маму, будет окольными партизанскими тропами сматываться в Таиланд в надежде обрести такое «преступное», такое понятное личное счастье нормального взрослого мужчины.
Отношения на фоне родительской гиперопеки и способах манипуляции ребенком уже встречались в кинематографе. Наш «Похороните меня за плинтусом», где в роли воспитателя-тирана выступает бабушка для маленького внука. Или вот в роли затюканного знаменитой мамой ребенка женщина, сама уже со своими внуками, — по Улицкой прекрасный телеспектакль Петра Штейна — «Эта пиковая дама». Был советский «Дневной поезд» — фильм, где героиня Маргариты Тереховой, одинокая взрослая женщина, и где ее судьбу пытается устроить пожилая мама.
Истории разные, одно общее — давление родителя. Нежелание дать ребенку соответственную его возрасту свободу принятия решений, поступков, уважения к возможности личной, отдельной жизни. Вопрос подобных случаев из категории вечных — какова норма родительской заботы? За которой всегда сквозит степень родительского эгоизма; но еще раньше — причина, послужившая точкой роста маминому страху одиночества, покинутости, боязни потери ребенка в любой форме, даже ценой того, что сам ребенок навсегда останется несчастным одиночкой.
И вот Деннис несет в своем огромном теле железную спортивную волю и мягкость, которая очень долго не может сказать НЕТ своей маленькой пугливой маме. Но что-то сломано в их датском королевстве, и ненормальность такой жизни режиссер показывает очень ясно: когда в общем санузле сын принимает душ, а мать садится на унитаз.
Так и напрашивается расхожая метафора про душные мамины крылья — ну, вы сами знаете. И режиссер знает и призывает не бояться летать самому. Как знать, быть может, именно там, на краю самого безбрежного океана окажется счастье твоей жизни, куда можно добраться только на своих крыльях и своей смелости. По-моему, у Маттисена получилась сказать. Резюме: корректное современное кино, которому все удалось.
Хотя одно режиссерское упущение есть. Он забыл прикрепить ярлык: «Рекомендовано к просмотру в лечебных целях всем родителям». И их детям. Очень рекомендовано.
Сэмпл: http://multi-up.com/1014751
Тип релиза: HDTV 1080i
Контейнер: TS
Видео: AVC, 1920х1080, 16:9, 6695 Кбит/сек, 25 fps
Аудио: (датский) MPEG Audio, 192 Кбит/сек, 48 КГц, 2 канала

MediaInfo

Общее
Идентификатор : 16 (0x10)
Полное имя : Teddy Bear_HD.ts
Формат : MPEG-TS
Размер файла : 4,91 Гбайт
Продолжительность : 1 ч. 29 м.
Режим общего битрейта : Переменный
Общий поток : 7860 Кбит/сек
Видео
Идентификатор : 1812 (0x714)
Идентификатор меню : 812 (0x32C)
Формат : AVC
Формат/Информация : Advanced Video Codec
Профиль формата : High@L4.0
Параметр CABAC формата : Да
Параметр ReFrames формата : 4 кадра
Идентификатор кодека : 27
Продолжительность : 1 ч. 29 м.
Битрейт : 6695 Кбит/сек
Ширина : 1920 пикселей
Высота : 1080 пикселей
Соотношение сторон : 16:9
Частота кадров : 25,000 кадров/сек
Стандарт вещания : PAL
Цветовое пространство : YUV
Субдискретизация насыщенности : 4:2:0
Битовая глубина : 8 бит
Тип развёртки : MBAFF
Бит/(Пиксели*Кадры) : 0.129
Размер потока : 4,18 Гбайт (85%)
Основные цвета : BT.709
Характеристики трансфера : BT.709
Коэффициенты матрицы : BT.709
Аудио #1
Идентификатор : 2812 (0xAFC)
Идентификатор меню : 812 (0x32C)
Формат : MPEG Audio
Версия формата : Version 1
Профиль формата : Layer 2
Идентификатор кодека : 4
Продолжительность : 1 ч. 29 м.
Вид битрейта : Постоянный
Битрейт : 192 Кбит/сек
Каналы : 2 канала
Частота : 48,0 КГц
Метод сжатия : С потерями
Задержка видео : 218 мс.
Размер потока : 123 Мбайт (2%)
Язык : std
Язык, дополнительно : Clean effects
Аудио #2
Идентификатор : 3812 (0xEE4)
Идентификатор меню : 812 (0x32C)
Формат : MPEG Audio
Версия формата : Version 1
Профиль формата : Layer 2
Идентификатор кодека : 4
Продолжительность : 1 ч. 29 м.
Вид битрейта : Постоянный
Битрейт : 192 Кбит/сек
Каналы : 2 канала
Частота : 48,0 КГц
Метод сжатия : С потерями
Задержка видео : 218 мс.
Размер потока : 123 Мбайт (2%)
Язык : English
Язык, дополнительно : Clean effects
Текст
Идентификатор : 63 (0x3F)-100
Идентификатор меню : 812 (0x32C)
Формат : Teletext
Меню
Идентификатор : 812 (0x32C)
Идентификатор меню : 812 (0x32C)
Продолжительность : 1 ч. 29 м.
Список : 1812 (0x714) (AVC) / 2812 (0xAFC) (MPEG Audio, std) / 3812 (0xEE4) (MPEG Audio, English) / 4812 (0x12CC) (AC-3, std) / 63 (0x3F) ()
Язык : / std / English / std

Скриншоты




Показать сообщения:    

Текущее время: 07-Дек 23:17

Часовой пояс: UTC + 3


Вы не можете начинать темы
Вы не можете отвечать на сообщения
Вы не можете редактировать свои сообщения
Вы не можете удалять свои сообщения
Вы не можете голосовать в опросах
Вы не можете прикреплять файлы к сообщениям
Вы не можете скачивать файлы