Виридиана / Viridiana (Луис Бунюэль / Luis Bunuel) [1961, Испания, Мексика, драма, BDRemux 1080p] 2x MVO + VO + Sub (2x Rus, Eng) + Original Spa


 

[Цитировать]

Виридиана / Viridiana
Страна: Испания, Мексика
Жанр: драма
Год выпуска: 1961
Продолжительность: 01:31:25
Перевод: Профессиональный (многоголосый закадровый) Cinema Prestige
Перевод: Профессиональный (многоголосый закадровый) ГТРК «Культура»
Перевод: Одноголосый закадровый, Владислав Огородников
Cубтитры: русские (2 вида), английские
Оригинальная аудиодорожка: испанский-Режиссер: Луис Бунюэль / Luis Bunuel
В ролях: Сильвия Пиналь, Фернандо Рей, Франсиско Рабаль, Хосе Кальво, Маргарита Лосано, Хосе Мануэль Мартин, Виктория Дзинни, Лола Гаос, Тереза Рабаль, Луис Эредиа
Описание: По мотивам романа Бенито Переса Гальдоса «Альма».
Виридиана, прежде чем постричься в монахини, навещает своего дядю, богатого землевладельца. Ошеломленный ее сходством с погибшей женой, он решает изнасиловать Виридиану, но в последний момент раскаивается. В порыве угрызений совестью он кончает жизнь самоубийством, оставляя свое состояние племяннице и внебрачному сыну. Виридиана желает на эти деньги усовершенствовать мир, но ее милосердие оборачивается несчастьем...
IMDb || КиноПоиск-Тип релиза: BDRemux 1080p
Контейнер: MKV
Видео: MPEG-4 AVC Video, 1920x1080 at 24 fps, 25048 kbps
Аудио#1: Russian: 48 kHz, AC3, 2.0 ch, 192 kbps
Аудио#2: Russian: 48 kHz, AC3, 1.0 ch, 192 kbps
Аудио#3: Russian: 48 kHz, AC3, 1.0 ch, 96 kbps
Аудио#4: Spanish: 48 kHz, FLAC, 2.0 ch, 421 kbps
Формат субтитров: softsub (SRT)
Сэмпл

Дополнительно

Отечественная дорожка Cinema Prestige из раздачи DVD5 petelin, остальные переводы из раздачи DVD9 TDiTP_.

MediaInfo

General
Unique ID : 223784740250003559479660962837618523603 (0xA85B5F8C4AD221C482143C5EB0787DD3)
Complete name : I:\Виридиана\Viridiana.1961.BDRemux. rutracker.mkv
Format : Matroska
Format version : Version 2
File size : 16.6 GiB
Duration : 1h 31mn
Overall bit rate mode : Variable
Overall bit rate : 26.0 Mbps
Movie name : Release for RuTracker
Writing application : mkvmerge v5.0.1 ('Es ist Sommer') built on Nov 6 2011 16:23:40
Writing library : libebml v1.2.2 + libmatroska v1.3.0
Video
ID : 1
Format : AVC
Format/Info : Advanced Video Codec
Format profile : High@L4.1
Format settings, CABAC : Yes
Format settings, ReFrames : 4 frames
Codec ID : V_MPEG4/ISO/AVC
Duration : 1h 31mn
Bit rate mode : Variable
Maximum bit rate : 30.0 Mbps
Width : 1 920 pixels
Height : 1 080 pixels
Display aspect ratio : 16:9
Frame rate mode : Constant
Frame rate : 24.000 fps
Standard : NTSC
Color space : YUV
Chroma subsampling : 4:2:0
Bit depth : 8 bits
Scan type : Progressive
Title : Viridiana.1961.BDRemux. rutracker
Language : English
Default : Yes
Forced : No
Color primaries : BT.709
Transfer characteristics : BT.709
Matrix coefficients : BT.709
Audio #1
ID : 2
Format : AC-3
Format/Info : Audio Coding 3
Mode extension : CM (complete main)
Format settings, Endianness : Big
Codec ID : A_AC3
Duration : 1h 31mn
Bit rate mode : Constant
Bit rate : 192 Kbps
Channel(s) : 2 channels
Channel positions : Front: L R
Sampling rate : 48.0 KHz
Bit depth : 16 bits
Compression mode : Lossy
Stream size : 126 MiB (1%)
Title : Cinema Prestige
Language : Russian
Default : Yes
Forced : No
Audio #2
ID : 3
Format : AC-3
Format/Info : Audio Coding 3
Mode extension : CM (complete main)
Format settings, Endianness : Big
Codec ID : A_AC3
Duration : 1h 31mn
Bit rate mode : Constant
Bit rate : 192 Kbps
Channel(s) : 1 channel
Channel positions : Front: C
Sampling rate : 48.0 KHz
Bit depth : 16 bits
Compression mode : Lossy
Stream size : 126 MiB (1%)
Title : Культура
Language : Russian
Default : No
Forced : No
Audio #3
ID : 4
Format : AC-3
Format/Info : Audio Coding 3
Mode extension : CM (complete main)
Format settings, Endianness : Big
Codec ID : A_AC3
Duration : 1h 31mn
Bit rate mode : Constant
Bit rate : 96.0 Kbps
Channel(s) : 1 channel
Channel positions : Front: C
Sampling rate : 48.0 KHz
Bit depth : 16 bits
Compression mode : Lossy
Stream size : 62.8 MiB (0%)
Title : В.Огородников
Language : Russian
Default : No
Forced : No
Audio #4
ID : 5
Format : FLAC
Format/Info : Free Lossless Audio Codec
Codec ID : A_FLAC
Duration : 1h 31mn
Bit rate mode : Variable
Channel(s) : 2 channels
Sampling rate : 48.0 KHz
Bit depth : 16 bits
Writing library : libFLAC 1.2.1 (UTC 2007-09-17)
Language : Spanish
Default : No
Forced : No
Text #1
ID : 6
Format : UTF-8
Codec ID : S_TEXT/UTF8
Codec ID/Info : UTF-8 Plain Text
Title : Cinema Prestige
Language : Russian
Default : No
Forced : No
Text #2
ID : 7
Format : UTF-8
Codec ID : S_TEXT/UTF8
Codec ID/Info : UTF-8 Plain Text
Language : Russian
Default : No
Forced : No
Text #3
ID : 8
Format : UTF-8
Codec ID : S_TEXT/UTF8
Codec ID/Info : UTF-8 Plain Text
Language : English
Default : No
Forced : No
Menu
00:00:00.000 : :1
00:08:41.000 : :2
00:18:16.240 : :3
00:27:11.000 : :4
00:35:51.000 : :5
00:45:14.480 : :6
00:55:36.239 : :7
01:02:28.000 : :8
01:11:16.240 : :9
01:21:37.000 : :10
01:31:09.000 : :11

Скриншоты




Показать сообщения:    

Текущее время: 10-Дек 15:49

Часовой пояс: UTC + 3


Вы не можете начинать темы
Вы не можете отвечать на сообщения
Вы не можете редактировать свои сообщения
Вы не можете удалять свои сообщения
Вы не можете голосовать в опросах
Вы не можете прикреплять файлы к сообщениям
Вы не можете скачивать файлы