Мой дядюшка / Mon oncle (Жак Тати / Jacques Tati) [1958, Франция, комедия, BDRemux 1080p] [Criterion Collection] 2x MVO + Sub (Rus, Eng) + Original Fre


 

[Цитировать]

Мой дядюшка / Mon oncle
Страна: Франция
Жанр: комедия
Год выпуска: 1958
Продолжительность: 01:56:26
Перевод: Профессиональный (многоголосый закадровый) Cinema Prestige
Перевод: Профессиональный (многоголосый закадровый) ОРТ
Cубтитры: русские, английские
Оригинальная аудиодорожка: французский-Режиссер: Жак Тати / Jacques Tati
В ролях: Жак Тати, Жан-Пьер Золя, Адриенн Сервантье, Люсьен Фрежис, Бетти Шнайдер, Жан-Франсуа Марсаль, Доминик Мари, Ивонн Арно, Аделаида Даниели, Ален Бекур
Описание: Господин Арпель с женой и сыном Жераром живут в современном районе, где все так прекрасно устроено, что мальчику скучно от такой пресной и унылой жизни. Но ее спокойное течение нарушает брат хозяйки дома - человек "не от мира сего" и фантазер, который вносит хаос в стерильно чистый мир и быстро становится лучшим другом Жерара...
IMDb || КиноПоиск-Тип релиза: BDRemux 1080p
Контейнер: MKV
Видео: MPEG-4 AVC Video, 1920x1080 at 23.976 fps, 20992 kbps
Аудио#1: Russian: 48 kHz, AC3, 2.0 ch, 192 kbps
Аудио#2: Russian: 48 kHz, AC3, 2.0 ch, 128 kbps
Аудио#3: French: 48 kHz, LPCM, 1.0 ch, 1152 kbps
Формат субтитров: softsub (SRT)
Сэмпл

Дополнительно

Отечественные дорожки из раздачи DVD5 pcad45.

MediaInfo

General
Unique ID : 178203829781069655185820865151772039145 (0x8610CF279960AC4B942EA115A38297E9)
Complete name : I:\Мой дядюшка\Mon.Oncle.1958.Criterion.BDRemux. rutracker.mkv
Format : Matroska
Format version : Version 2
File size : 18.2 GiB
Duration : 1h 56mn
Overall bit rate mode : Variable
Overall bit rate : 22.4 Mbps
Movie name : Release for RuTracker
Writing application : mkvmerge v5.0.1 ('Es ist Sommer') built on Nov 6 2011 16:23:40
Writing library : libebml v1.2.2 + libmatroska v1.3.0
Video
ID : 1
Format : AVC
Format/Info : Advanced Video Codec
Format profile : High@L4.1
Format settings, CABAC : Yes
Format settings, ReFrames : 4 frames
Codec ID : V_MPEG4/ISO/AVC
Duration : 1h 56mn
Bit rate mode : Variable
Maximum bit rate : 37.0 Mbps
Width : 1 920 pixels
Height : 1 080 pixels
Display aspect ratio : 16:9
Frame rate mode : Constant
Frame rate : 23.976 fps
Color space : YUV
Chroma subsampling : 4:2:0
Bit depth : 8 bits
Scan type : Progressive
Title : Mon.Oncle.1958.Criterion.BDRemux. rutracker
Language : French
Default : Yes
Forced : No
Audio #1
ID : 2
Format : AC-3
Format/Info : Audio Coding 3
Mode extension : CM (complete main)
Format settings, Endianness : Big
Codec ID : A_AC3
Duration : 1h 56mn
Bit rate mode : Constant
Bit rate : 192 Kbps
Channel(s) : 2 channels
Channel positions : Front: L R
Sampling rate : 48.0 KHz
Bit depth : 16 bits
Compression mode : Lossy
Stream size : 160 MiB (1%)
Title : Cinema Prestige
Language : Russian
Default : Yes
Forced : No
Audio #2
ID : 3
Format : AC-3
Format/Info : Audio Coding 3
Mode extension : CM (complete main)
Format settings, Endianness : Big
Codec ID : A_AC3
Duration : 1h 56mn
Bit rate mode : Constant
Bit rate : 128 Kbps
Channel(s) : 2 channels
Channel positions : Front: L R
Sampling rate : 48.0 KHz
Bit depth : 16 bits
Compression mode : Lossy
Stream size : 107 MiB (1%)
Title : ОРТ
Language : Russian
Default : No
Forced : No
Audio #3
ID : 4
Format : PCM
Codec ID : A_PCM/INT/LIT
Duration : 1h 56mn
Bit rate mode : Constant
Sampling rate : 48.0 KHz
Bit depth : 24 bits
Language : French
Default : No
Forced : No
Text #1
ID : 5
Format : UTF-8
Codec ID : S_TEXT/UTF8
Codec ID/Info : UTF-8 Plain Text
Language : Russian
Default : No
Forced : No
Text #2
ID : 6
Format : UTF-8
Codec ID : S_TEXT/UTF8
Codec ID/Info : UTF-8 Plain Text
Language : English
Default : No
Forced : No
Menu
00:00:00.000 : :1.Two sides of the fence
00:03:37.300 : :2.The Arpel family
00:06:29.847 : :3.Cars
00:07:49.886 : :4.Downtown
00:09:53.426 : :5.Monsieur Hulot
00:15:15.497 : :6.The car trick
00:18:24.186 : :7.A visitor
00:21:39.131 : :8.Evening ritual
00:23:06.843 : :9.A dishonest scale
00:25:37.869 : :10.The phone call
00:27:51.169 : :11.The job interview
00:31:21.129 : :12.The neighbor
00:34:33.738 : :13.Dinnertime
00:40:29.927 : :14.The whistle trick
00:46:25.866 : :15."It's always his uncle"
00:50:34.281 : :16.Sunday morning downtown
00:57:31.156 : :17.The garden party
01:18:44.386 : :18.That evening
01:20:39.626 : :19.Monsieur Hulot at work
01:34:13.356 : :20."Happy anniversary"
01:37:51.240 : :21.Red plastic sausages
01:40:49.793 : :22.An evening on the town
01:45:48.216 : :23.A good morning
01:47:50.255 : :24.Good-bye, Monsieur Hulot
01:51:29.683 : :25.The airport

Скриншоты

BFI vs Criterion



Показать сообщения:    

Текущее время: 09-Дек 01:06

Часовой пояс: UTC + 3


Вы не можете начинать темы
Вы не можете отвечать на сообщения
Вы не можете редактировать свои сообщения
Вы не можете удалять свои сообщения
Вы не можете голосовать в опросах
Вы не можете прикреплять файлы к сообщениям
Вы не можете скачивать файлы