Рим / Roma (Федерико Феллини / Federico Fellini) [1972, Италия, Франция, драма, комедия, BDRemux 1080p] [Eureka MoC #86] MVO + DVO + Sub (2x Rus, Eng) + Original Ita


 

[Цитировать]

Рим / Roma
Страна: Италия, Франция
Жанр: драма, комедия
Год выпуска: 1972
Продолжительность: 02:00:29
Перевод: Профессиональный (двухголосый закадровый) ВидеоИмпульс
Перевод: Профессиональный (многоголосый закадровый) SomeWax
Cубтитры: русские (2 вида), английские
Оригинальная аудиодорожка: итальянский-Режиссер: Федерико Феллини / Federico Fellini
В ролях: Марне Мейтленд, Питер Гонзалес Фалкон, Элиза Майнарди, Фиона Флоренс, Галлиано Сбарра, Паола Натали, Марио Дель Ваго, Альфредо Адами
Описание: Фактически бессюжетный, поэтичный, импрессионистский портрет Рима глазами одного из его самых известных граждан. В фильме смешаны автобиография режиссера (реконструкция собственного прибытия Феллини в Рим во времена Муссолини; походы в бордель и мюзик-холл) со сценами современной римской жизни (массовые пробки на автостраде; сложности проезда через Рим после наступления темноты; Римское метро; незабываемый показ мод).
IMDb || КиноПоиск-Тип релиза: BDRemux 1080p [Roma 1972 1080p GBR Blu-ray AVC LPCM 1.0 (thx HdGRamon)]
Контейнер: MKV
Видео: MPEG-4 AVC Video, 1920x1080 at 23.976 fps, 34977 kbps
Аудио#1: Russian: 48 kHz, AC3, 2.0 ch, 192 kbps
Аудио#2: Russian: 48 kHz, AC3, 2.0 ch, 192 kbps
Аудио#3: Italian: 48 kHz, LPCM, 1.0 ch, 1152 kbps
Аудио#4: English: 48 kHz, FLAC, 1.0 ch, 600 kbps
Формат субтитров: softsub (SRT)
Сэмпл

Дополнительно

Отечественные дорожки ВидеоИмпульс и SomeWax из присутствующих DVD5 на трекере. Авторам (Sanchez1924, Игорь Чернышевский) спасибо.

MediaInfo

General
Unique ID : 201590314756207260211187273207102156838 (0x97A8E1E2EAFD2CE3830254F73A31B026)
Complete name : I:\Рим\Roma.1972.BDRemux. rutracker.mkv
Format : Matroska
Format version : Version 2
File size : 31.2 GiB
Duration : 2h 0mn
Overall bit rate mode : Variable
Overall bit rate : 37.1 Mbps
Movie name : Release for RuTracker
Writing application : mkvmerge v5.0.1 ('Es ist Sommer') built on Nov 6 2011 16:23:40
Writing library : libebml v1.2.2 + libmatroska v1.3.0
Video
ID : 1
Format : AVC
Format/Info : Advanced Video Codec
Format profile : High@L4.1
Format settings, CABAC : Yes
Format settings, ReFrames : 3 frames
Codec ID : V_MPEG4/ISO/AVC
Duration : 2h 0mn
Bit rate mode : Variable
Nominal bit rate : 35.0 Mbps
Maximum bit rate : 38.0 Mbps
Width : 1 920 pixels
Height : 1 080 pixels
Display aspect ratio : 16:9
Frame rate mode : Constant
Frame rate : 23.976 fps
Color space : YUV
Chroma subsampling : 4:2:0
Bit depth : 8 bits
Scan type : Progressive
Bits/(Pixel*Frame) : 0.704
Title : Roma.1972.BDRemux. rutracker
Writing library : x264 core 128 r2216 198a7ea
Encoding settings : cabac=1 / ref=4 / deblock=0:-1:-1 / analyse=0x3:0x133 / me=umh / subme=10 / psy=1 / psy_rd=1.00:0.15 / mixed_ref=1 / me_range=24 / chroma_me=1 / trellis=2 / 8x8dct=1 / cqm=0 / deadzone=21,11 / fast_pskip=1 / chroma_qp_offset=-3 / threads=12 / lookahead_threads=2 / sliced_threads=0 / slices=4 / nr=0 / decimate=1 / interlaced=0 / bluray_compat=1 / constrained_intra=0 / bframes=3 / b_pyramid=1 / b_adapt=2 / b_bias=0 / direct=3 / weightb=1 / open_gop=1 / weightp=1 / keyint=24 / keyint_min=1 / scenecut=40 / intra_refresh=0 / rc_lookahead=24 / rc=2pass / mbtree=0 / bitrate=35000 / ratetol=0.1 / qcomp=0.00 / qpmin=0 / qpmax=69 / qpstep=4 / cplxblur=20.0 / qblur=0.5 / vbv_maxrate=38000 / vbv_bufsize=28500 / nal_hrd=vbr / ip_ratio=1.40 / pb_ratio=1.30 / aq=1:0.50
Language : Italian
Default : Yes
Forced : No
Color primaries : BT.709
Transfer characteristics : BT.709
Matrix coefficients : BT.709
Audio #1
ID : 2
Format : AC-3
Format/Info : Audio Coding 3
Mode extension : CM (complete main)
Format settings, Endianness : Big
Codec ID : A_AC3
Duration : 2h 0mn
Bit rate mode : Constant
Bit rate : 192 Kbps
Channel(s) : 2 channels
Channel positions : Front: L R
Sampling rate : 48.0 KHz
Bit depth : 16 bits
Compression mode : Lossy
Stream size : 165 MiB (1%)
Title : ВидеоИмпульс
Language : Russian
Default : Yes
Forced : No
Audio #2
ID : 3
Format : AC-3
Format/Info : Audio Coding 3
Mode extension : CM (complete main)
Format settings, Endianness : Big
Codec ID : A_AC3
Duration : 2h 0mn
Bit rate mode : Constant
Bit rate : 192 Kbps
Channel(s) : 2 channels
Channel positions : Front: L R
Sampling rate : 48.0 KHz
Bit depth : 16 bits
Compression mode : Lossy
Stream size : 165 MiB (1%)
Title : SomeWax
Language : Russian
Default : No
Forced : No
Audio #3
ID : 4
Format : PCM
Codec ID : A_PCM/INT/LIT
Duration : 2h 0mn
Bit rate mode : Constant
Sampling rate : 48.0 KHz
Bit depth : 24 bits
Language : Italian
Default : No
Forced : No
Audio #4
ID : 5
Format : FLAC
Format/Info : Free Lossless Audio Codec
Codec ID : A_FLAC
Duration : 2h 0mn
Bit rate mode : Variable
Channel(s) : 1 channel
Sampling rate : 48.0 KHz
Bit depth : 24 bits
Writing library : libFLAC 1.2.1 (UTC 2007-09-17)
Language : English
Default : No
Forced : No
Text #1
ID : 6
Format : UTF-8
Codec ID : S_TEXT/UTF8
Codec ID/Info : UTF-8 Plain Text
Title : divxclub
Language : Russian
Default : No
Forced : No
Text #2
ID : 7
Format : UTF-8
Codec ID : S_TEXT/UTF8
Codec ID/Info : UTF-8 Plain Text
Title : SomeWax
Language : Russian
Default : No
Forced : No
Text #3
ID : 8
Format : UTF-8
Codec ID : S_TEXT/UTF8
Codec ID/Info : UTF-8 Plain Text
Language : English
Default : No
Forced : No
Menu
00:00:00.000 : :00:00:00.000
00:14:12.143 : :00:14:12.143
00:24:14.620 : :00:24:14.620
00:33:37.557 : :00:33:37.557
01:02:09.559 : :01:02:09.559
01:06:37.452 : :01:06:37.452
01:19:07.993 : :01:19:07.993
01:32:12.318 : :01:32:12.318
01:48:00.057 : :01:48:00.057

Скриншоты




Показать сообщения:    

Текущее время: 03-Дек 22:48

Часовой пояс: UTC + 3


Вы не можете начинать темы
Вы не можете отвечать на сообщения
Вы не можете редактировать свои сообщения
Вы не можете удалять свои сообщения
Вы не можете голосовать в опросах
Вы не можете прикреплять файлы к сообщениям
Вы не можете скачивать файлы