Рим / Roma (Федерико Феллини / Federico Fellini) [1972, Италия, Франция, драма, комедия, BDRip 720p] [Eureka MoC #86] MVO + DVO + Sub (Rus, Eng) + Original Ita


 

[Цитировать]

Рим / Roma
Страна: Италия, Франция
Жанр: драма, комедия
Год выпуска: 1972
Продолжительность: 02:00:29
Перевод: Профессиональный (двухголосый закадровый) ВидеоИмпульс
Перевод: Профессиональный (многоголосый закадровый) SomeWax
Cубтитры: русские (2 вида), английские
Оригинальная аудиодорожка: итальянский-Режиссер: Федерико Феллини / Federico Fellini
В ролях: Марне Мейтленд, Питер Гонзалес Фалкон, Элиза Майнарди, Фиона Флоренс, Галлиано Сбарра, Паола Натали, Марио Дель Ваго, Альфредо Адами
Описание: Фактически бессюжетный, поэтичный, импрессионистский портрет Рима глазами одного из его самых известных граждан. В фильме смешаны автобиография режиссера (реконструкция собственного прибытия Феллини в Рим во времена Муссолини; походы в бордель и мюзик-холл) со сценами современной римской жизни (массовые пробки на автостраде; сложности проезда через Рим после наступления темноты; Римское метро; незабываемый показ мод).
IMDb || КиноПоиск-Тип релиза: BDRip 720p [DON]
Контейнер: MKV
Видео: x264/AVC, 1280x690 at 23.976 fps, 8373 kbps
Аудио#1: Russian: 48 kHz, AC3, 2.0 ch, 192 kbps
Аудио#2: Russian: 48 kHz, AC3, 2.0 ch, 192 kbps
Аудио#3: Italian: 48 kHz, AC3, 1.0 ch, 640 kbps
Формат субтитров: softsub (SRT)
Сэмпл

Дополнительно

Отечественные дорожки ВидеоИмпульс и SomeWax из присутствующих DVD5 на трекере. Авторам (Sanchez1924, Игорь Чернышевский) спасибо.

MediaInfo

General
Unique ID : 244992994058041532032855202513460025045 (0xB84FEF310C0310589BC6493713CE56D5)
Complete name : I:\Рим\Roma.1972.720p-DON. rutracker.mkv
Format : Matroska
Format version : Version 2
File size : 8.05 GiB
Duration : 2h 0mn
Overall bit rate : 9 569 Kbps
Movie name : Release for RuTracker
Writing application : mkvmerge v5.0.1 ('Es ist Sommer') built on Nov 6 2011 16:23:40
Writing library : libebml v1.2.2 + libmatroska v1.3.0
Video
ID : 1
Format : AVC
Format/Info : Advanced Video Codec
Format profile : High@L4.1
Format settings, CABAC : Yes
Format settings, ReFrames : 9 frames
Codec ID : V_MPEG4/ISO/AVC
Duration : 2h 0mn
Bit rate : 8 354 Kbps
Width : 1 280 pixels
Height : 690 pixels
Display aspect ratio : 1.85:1
Frame rate mode : Constant
Frame rate : 23.976 fps
Color space : YUV
Chroma subsampling : 4:2:0
Bit depth : 8 bits
Scan type : Progressive
Bits/(Pixel*Frame) : 0.395
Stream size : 7.03 GiB (87%)
Title : Roma.1972.720p-DON. rutracker
Writing library : x264 core 140 r2377 1ca7bb9
Encoding settings : cabac=1 / ref=9 / deblock=1:-3:-3 / analyse=0x3:0x133 / me=tesa / subme=10 / psy=1 / psy_rd=1.10:0.00 / mixed_ref=1 / me_range=32 / chroma_me=1 / trellis=2 / 8x8dct=1 / cqm=0 / deadzone=21,11 / fast_pskip=0 / chroma_qp_offset=-2 / threads=12 / lookahead_threads=2 / sliced_threads=0 / nr=0 / decimate=1 / interlaced=0 / bluray_compat=0 / constrained_intra=0 / bframes=9 / b_pyramid=2 / b_adapt=2 / b_bias=0 / direct=3 / weightb=1 / open_gop=0 / weightp=2 / keyint=241 / keyint_min=23 / scenecut=40 / intra_refresh=0 / rc_lookahead=60 / rc=crf / mbtree=0 / crf=16.9 / qcomp=0.75 / qpmin=0 / qpmax=69 / qpstep=4 / vbv_maxrate=50000 / vbv_bufsize=62500 / crf_max=0.0 / nal_hrd=none / filler=0 / ip_ratio=1.40 / pb_ratio=1.30 / aq=1:0.60
Language : Italian
Default : Yes
Forced : No
Audio #1
ID : 2
Format : AC-3
Format/Info : Audio Coding 3
Mode extension : CM (complete main)
Format settings, Endianness : Big
Codec ID : A_AC3
Duration : 2h 0mn
Bit rate mode : Constant
Bit rate : 192 Kbps
Channel(s) : 2 channels
Channel positions : Front: L R
Sampling rate : 48.0 KHz
Bit depth : 16 bits
Compression mode : Lossy
Stream size : 165 MiB (2%)
Title : ВидеоИмпульс
Language : Russian
Default : Yes
Forced : No
Audio #2
ID : 3
Format : AC-3
Format/Info : Audio Coding 3
Mode extension : CM (complete main)
Format settings, Endianness : Big
Codec ID : A_AC3
Duration : 2h 0mn
Bit rate mode : Constant
Bit rate : 192 Kbps
Channel(s) : 2 channels
Channel positions : Front: L R
Sampling rate : 48.0 KHz
Bit depth : 16 bits
Compression mode : Lossy
Stream size : 165 MiB (2%)
Title : SomeWax
Language : Russian
Default : No
Forced : No
Audio #3
ID : 4
Format : AC-3
Format/Info : Audio Coding 3
Mode extension : CM (complete main)
Format settings, Endianness : Big
Codec ID : A_AC3
Duration : 2h 0mn
Bit rate mode : Constant
Bit rate : 640 Kbps
Channel(s) : 1 channel
Channel positions : Front: C
Sampling rate : 48.0 KHz
Bit depth : 16 bits
Compression mode : Lossy
Stream size : 552 MiB (7%)
Language : Italian
Default : No
Forced : No
Text #1
ID : 5
Format : UTF-8
Codec ID : S_TEXT/UTF8
Codec ID/Info : UTF-8 Plain Text
Title : divxclub
Language : Russian
Default : No
Forced : No
Text #2
ID : 6
Format : UTF-8
Codec ID : S_TEXT/UTF8
Codec ID/Info : UTF-8 Plain Text
Title : SomeWax
Language : Russian
Default : No
Forced : No
Text #3
ID : 7
Format : UTF-8
Codec ID : S_TEXT/UTF8
Codec ID/Info : UTF-8 Plain Text
Language : English
Default : No
Forced : No
Menu
00:00:00.000 : :00:00:00.000
00:14:12.143 : :00:14:12.143
00:24:14.620 : :00:24:14.620
00:33:37.557 : :00:33:37.557
01:02:09.559 : :01:02:09.559
01:06:37.452 : :01:06:37.452
01:19:07.993 : :01:19:07.993
01:32:12.318 : :01:32:12.318
01:48:00.057 : :01:48:00.057

Скриншоты




Показать сообщения:    

Текущее время: 02-Дек 21:11

Часовой пояс: UTC + 3


Вы не можете начинать темы
Вы не можете отвечать на сообщения
Вы не можете редактировать свои сообщения
Вы не можете удалять свои сообщения
Вы не можете голосовать в опросах
Вы не можете прикреплять файлы к сообщениям
Вы не можете скачивать файлы