Легко живется с закрытыми глазами / Vivir es fácil con los ojos cerrados / Living Is Easy with Eyes Closed (Давид Труэба / David Trueba) [2013, Испания, драма, комедия, BDRip 720p] Sub Rus, Spa + Original Spa


 

[Цитировать]

Легко живется с закрытыми глазами / Vivir es fácil con los ojos cerrados / Living Is Easy with Eyes Closed Страна: Испания
Жанр: драма, комедия
Год выпуска: 2013
Продолжительность: 01:48:32
Перевод: Субтитры
Cубтитры: русские (Студия "Комарики"), испанские
Оригинальная аудиодорожка: испанский (мультиязыковая: испанский, английский)
Режиссер: Давид Труэба / David Trueba
В ролях: Хавьер Камара, Наталия де Молина, Франсеск Коломер, Рамон Фонтсере, Rogelio Fernández, Хорхе Санс, Ариадна Хиль, Виолета Родригез, Léo Rodríguez, Tristán Rodríguez
Описание:
Фильм переносит нас в 1966 год. Джон Леннон, будучи в творческом кризисе, принимает решение порвать с «Битлз» и начать карьеру актера. Для этого он прибывает в Альмерию, чтобы сниматься тут в антивоенном фильме «Как я выиграл войну».
Антонио, рядовой преподаватель английского, который использует песни «Битлз», чтобы учить по ним школьников языку, узнает, что его кумир Джон Леннон делает фильм в Альмерии, и решает поехать туда, чтобы встретиться с ним и уговорить музыканта выполнить необычную просьбу.
В пути Антонио встречает двух молодых людей, и вместе они продолжают свой путь к Альмерии, где Леннон сочинил свою песню Strawberry Fields Forever.
- -Тип релиза: BDRip 720p (рип от F2@VietHD)

Контейнер: MKV
Видео: AVC (x264), 1280x544 (2,35:1) at 23,976 fps, 6200 Кbps, 0.371 bpp
Аудио 1: AC3; 640 Kbps; CBR; 6 ch; 48 khz | Испанский |
Формат субтитров: softsub (SRT)
Скриншоты || x264 Info || MediaInfo || NotesNotes: Русские субтитры, thx: Professor_Ha

MediaInfo

Общее
Уникальный идентификатор                 : 224543248707334551971886218446442092061 (0xA8ED74E6FC0BD5969EE9C4AA2640561D)
Полное имя                               : Жить легко с закрытыми глазами.2013.RUSSUB.720p.BluRay.x264-VietHD.mkv
Формат                                   : Matroska
Версия формата                           : Version 4 / Version 2
Размер файла                             : 5,19 Гбайт
Продолжительность                        : 1 ч. 48 м.
Общий поток                              : 6839 Кбит/сек
Название фильма                          : Living Is Easy with Eyes Closed [2013] [720p] RUSSUB
Дата кодирования                         : UTC 2014-11-01 18:22:56
Программа кодирования                    : mkvmerge v7.3.0 ('Nouages') 32bit built on Oct 22 2014 18:44:01
Библиотека кодирования                   : libebml v1.3.0 + libmatroska v1.4.1
Видео
Идентификатор                            : 1
Формат                                   : AVC
Формат/Информация                        : Advanced Video Codec
Профиль формата                          : High@L4.1
Параметр CABAC формата                   : Да
Параметр ReFrames формата                : 12 кадров
Идентификатор кодека                     : V_MPEG4/ISO/AVC
Продолжительность                        : 1 ч. 48 м.
Битрейт                                  : 6200 Кбит/сек
Ширина                                   : 1280 пикселей
Высота                                   : 544 пикселя
Соотношение сторон                       : 2,35:1
Режим частоты кадров                     : Постоянный
Частота кадров                           : 23,976 кадра/сек
Цветовое пространство                    : YUV
Субдискретизация насыщенности            : 4:2:0
Битовая глубина                          : 8 бит
Тип развёртки                            : Прогрессивная
Бит/(Пиксели*Кадры)                      : 0.371
Размер потока                            : 4,60 Гбайт (89%)
Заголовок                                : profile.php?mode=viewprofile&u=22488948
Библиотека кодирования                   : x264 core 142 r2479kMod dd79a61
Настройки программы                      : cabac=1 / ref=12 / deblock=1:-3:-3 / analyse=0x3:0x133 / me=umh / subme=10 / psy=1 / fade_compensate=0.00 / psy_rd=1.08:0.00 / mixed_ref=1 / me_range=24 / chroma_me=1 / trellis=2 / 8x8dct=1 / cqm=0 / deadzone=21,11 / fast_pskip=1 / chroma_qp_offset=-2 / threads=6 / lookahead_threads=1 / sliced_threads=0 / nr=0 / decimate=1 / interlaced=0 / bluray_compat=0 / constrained_intra=0 / fgo=0 / bframes=11 / b_pyramid=2 / b_adapt=2 / b_bias=0 / direct=3 / weightb=1 / open_gop=0 / weightp=2 / keyint=250 / keyint_min=23 / scenecut=40 / intra_refresh=0 / rc=2pass / mbtree=0 / bitrate=6200 / ratetol=1.0 / qcomp=0.65 / qpmin=0 / qpmax=69 / qpstep=4 / cplxblur=20.0 / qblur=0.5 / ip_ratio=1.30 / pb_ratio=1.20 / aq=1:0.68
Язык                                     : English
Default                                  : Да
Forced                                   : Нет
Коэффициенты матрицы                     : BT.709
Аудио
Идентификатор                            : 2
Формат                                   : AC-3
Формат/Информация                        : Audio Coding 3
Расширение режима                        : CM (complete main)
Параметр Endianness формата              : Big
Идентификатор кодека                     : A_AC3
Продолжительность                        : 1 ч. 48 м.
Вид битрейта                             : Постоянный
Битрейт                                  : 640 Кбит/сек
Каналы                                   : 6 каналов
Расположение каналов                     : Front: L C R, Side: L R, LFE
Частота                                  : 48,0 КГц
Битовая глубина                          : 16 бит
Метод сжатия                             : С потерями
Размер потока                            : 497 Мбайт (9%)
Язык                                     : Spanish
Default                                  : Да
Forced                                   : Нет
Текст #1
Идентификатор                            : 3
Формат                                   : UTF-8
Идентификатор кодека                     : S_TEXT/UTF8
Идентификатор кодека/Информация          : UTF-8 Plain Text
Заголовок                                : [Студия "Комарики"]
Язык                                     : Russian
Default                                  : Да
Forced                                   : Нет
Текст #2
Идентификатор                            : 4
Формат                                   : UTF-8
Идентификатор кодека                     : S_TEXT/UTF8
Идентификатор кодека/Информация          : UTF-8 Plain Text
Язык                                     : Spanish
Default                                  : Нет
Forced                                   : Нет
Меню
00:00:00.000                             : en:00:00:00.000
00:05:03.637                             : en:00:05:03.637
00:11:03.538                             : en:00:11:03.538
00:15:10.743                             : en:00:15:10.743
00:20:08.582                             : en:00:20:08.582
00:27:40.868                             : en:00:27:40.868
00:33:20.123                             : en:00:33:20.123
00:37:19.237                             : en:00:37:19.237
00:45:29.685                             : en:00:45:29.685
00:49:31.218                             : en:00:49:31.218
00:56:42.774                             : en:00:56:42.774
00:59:10.881                             : en:00:59:10.881
01:04:43.463                             : en:01:04:43.463
01:11:13.978                             : en:01:11:13.978
01:15:57.052                             : en:01:15:57.052
01:20:45.090                             : en:01:20:45.090
01:27:48.138                             : en:01:27:48.138
01:32:08.189                             : en:01:32:08.189
01:39:46.272                             : en:01:39:46.272
01:44:33.684                             : en:01:44:33.684
x264 Infox264 [info]: frame I:1184 Avg QP:11.54 size:153107
x264 [info]: frame P:31996 Avg QP:13.30 size: 59776
x264 [info]: frame B:122963 Avg QP:14.34 size: 23998
x264 [info]: consecutive B-frames: 1.6% 1.4% 6.1% 18.3% 22.5% 38.0% 6.1% 1.8% 1.4% 0.8% 0.6% 1.5%



Показать сообщения:    

Текущее время: 04-Дек 13:14

Часовой пояс: UTC + 3


Вы не можете начинать темы
Вы не можете отвечать на сообщения
Вы не можете редактировать свои сообщения
Вы не можете удалять свои сообщения
Вы не можете голосовать в опросах
Вы не можете прикреплять файлы к сообщениям
Вы не можете скачивать файлы