Фальшивка / Verites et mensonges / F for Fake (Орсон Уэллс / Orson Welles) [1973, Франция, Иран, Германия (ФРГ), документальный, комедия, BDRemux 1080p] [Criterion Collection] MVO + DVO + AVO (Медведев) + Sub (Rus, Eng) + Original Eng


 

[Цитировать]

Фальшивка / Verites et mensonges / F for Fake
Страна: Франция, Иран, Германия (ФРГ)
Жанр: документальный
Год выпуска: 1973
Продолжительность: 01:28:45
Перевод: Профессиональный (многоголосый закадровый) Кармен Видео
Перевод: Профессиональный (двухголосый закадровый) Культура
Перевод: Авторский (одноголосый закадровый) Алексей Медведев
Cубтитры: русские, английские
Оригинальная аудиодорожка: английский-Режиссер: Орсон Уэллс / Orson Welles
В ролях: Ойа Кодар, Джозеф Коттен, Франсуа Рейшенбах, Пол Стюарт, Орсон Уэллс
Описание: В своем самом неожиданном фильме, балансирующем на грани документа и художественного вымысла Орсон Уэллс рассуждает о знаменитых подделках произведений литературы и изобразительного искусства и размышляет о том, что изготовитель фальшивки часто может оказаться намного талантливее, чем создатель оригинала.
IMDb || КиноПоиск-Тип релиза: BDRemux 1080p [Verites et mensonges 1976 1080p Blu-ray AVC LPCM 1.0 (thx raminmehr)]
Контейнер: MKV
Видео: MPEG-4 AVC Video, 1920x1080 at 23.976 fps, 24000 kbps
Аудио#1: Russian: 48 kHz, AC3, 2.0 ch, 192 kbps
Аудио#2: Russian: 48 kHz, AC3, 2.0 ch, 192 kbps
Аудио#3: Russian: 48 kHz, AC3, 2.0 ch, 192 kbps
Аудио#4: English: 48 kHz, LPCM, 1.0 ch, 1152 kbps
Аудио#5: English: 48 kHz, AC3, 1.0 ch, 192 kbps | Commentary
Формат субтитров: softsub (SRT)
Сэмпл

MediaInfo

General
Unique ID : 190653162958121270704397823126173664450 (0x8F6E76AB6E26F55F8A83A39F6FC444C2)
Complete name : I:\Фальшивка\F.for.Fake.1973.Criterion.BDRemux.mkv
Format : Matroska
Format version : Version 2
File size : 16.1 GiB
Duration : 1h 28mn
Overall bit rate mode : Variable
Overall bit rate : 25.9 Mbps
Movie name : Release
Writing application : mkvmerge v5.0.1 ('Es ist Sommer') built on Nov 6 2011 16:23:40
Writing library : libebml v1.2.2 + libmatroska v1.3.0
Video
ID : 1
Format : AVC
Format/Info : Advanced Video Codec
Format profile : High@L4.1
Format settings, CABAC : Yes
Format settings, ReFrames : 4 frames
Codec ID : V_MPEG4/ISO/AVC
Duration : 1h 28mn
Bit rate mode : Variable
Maximum bit rate : 38.0 Mbps
Width : 1 920 pixels
Height : 1 080 pixels
Display aspect ratio : 16:9
Frame rate mode : Constant
Frame rate : 23.976 fps
Color space : YUV
Chroma subsampling : 4:2:0
Bit depth : 8 bits
Scan type : Progressive
Title : F.for.Fake.1973.Criterion.BDRemux.
Language : English
Default : Yes
Forced : No
Audio #1
ID : 2
Format : AC-3
Format/Info : Audio Coding 3
Mode extension : CM (complete main)
Format settings, Endianness : Big
Codec ID : A_AC3
Duration : 1h 28mn
Bit rate mode : Constant
Bit rate : 192 Kbps
Channel(s) : 2 channels
Channel positions : Front: L R
Sampling rate : 48.0 KHz
Bit depth : 16 bits
Compression mode : Lossy
Stream size : 122 MiB (1%)
Title : Кармен Видео
Language : Russian
Default : Yes
Forced : No
Audio #2
ID : 3
Format : AC-3
Format/Info : Audio Coding 3
Mode extension : CM (complete main)
Format settings, Endianness : Big
Codec ID : A_AC3
Duration : 1h 28mn
Bit rate mode : Constant
Bit rate : 192 Kbps
Channel(s) : 2 channels
Channel positions : Front: L R
Sampling rate : 48.0 KHz
Bit depth : 16 bits
Compression mode : Lossy
Stream size : 122 MiB (1%)
Title : Культура
Language : Russian
Default : No
Forced : No
Audio #3
ID : 4
Format : AC-3
Format/Info : Audio Coding 3
Mode extension : CM (complete main)
Format settings, Endianness : Big
Codec ID : A_AC3
Duration : 1h 28mn
Bit rate mode : Constant
Bit rate : 192 Kbps
Channel(s) : 2 channels
Channel positions : Front: L R
Sampling rate : 48.0 KHz
Bit depth : 16 bits
Compression mode : Lossy
Stream size : 122 MiB (1%)
Title : Медведев
Language : Russian
Default : No
Forced : No
Audio #4
ID : 5
Format : PCM
Codec ID : A_PCM/INT/LIT
Duration : 1h 28mn
Bit rate mode : Constant
Sampling rate : 48.0 KHz
Bit depth : 24 bits
Language : English
Default : No
Forced : No
Audio #5
ID : 6
Format : AC-3
Format/Info : Audio Coding 3
Mode extension : CM (complete main)
Format settings, Endianness : Big
Codec ID : A_AC3
Duration : 1h 28mn
Bit rate mode : Constant
Bit rate : 192 Kbps
Channel(s) : 1 channel
Channel positions : Front: C
Sampling rate : 48.0 KHz
Bit depth : 16 bits
Compression mode : Lossy
Stream size : 122 MiB (1%)
Title : commentary
Language : English
Default : No
Forced : No
Text #1
ID : 7
Format : UTF-8
Codec ID : S_TEXT/UTF8
Codec ID/Info : UTF-8 Plain Text
Language : Russian
Default : No
Forced : No
Text #2
ID : 8
Format : UTF-8
Codec ID : S_TEXT/UTF8
Codec ID/Info : UTF-8 Plain Text
Language : English
Default : No
Forced : No
Menu
00:00:00.000 : :1.The magician
00:02:41.619 : :2.Fake!
00:05:33.833 : :3.And introducing Oja Kodar
00:09:26.566 : :4.Ibiza
00:11:35.236 : :5.Elmyr de Hory
00:19:30.752 : :6."Helga Hughes"
00:21:33.375 : :7.The age of "experts"
00:28:22.701 : :8.The new emperor of the hoax
00:33:58.911 : :9."Don't be spooked by the experts"
00:37:56.107 : :10."Like all Hungarians..."
00:46:46.553 : :11.Welles's confession
00:51:38.386 : :12.Clifford comes clean
00:57:34.451 : :13."And Elmyr?"
01:02:39.589 : :14."Oja Kodar was something else"
01:05:43.105 : :15.Chartres
01:08:16.884 : :16.Oja and Picasso
01:16:21.076 : :17.Hurricane Pablo
01:25:35.296 : :18.Time for a confession

Скриншоты




Показать сообщения:    

Текущее время: 05-Дек 01:18

Часовой пояс: UTC + 3


Вы не можете начинать темы
Вы не можете отвечать на сообщения
Вы не можете редактировать свои сообщения
Вы не можете удалять свои сообщения
Вы не можете голосовать в опросах
Вы не можете прикреплять файлы к сообщениям
Вы не можете скачивать файлы