Легенда о Каспаре Хаузере / La leggenda di Kaspar Hauser / The Legend of Kaspar Hauser (Давид Манули / Davide Manuli) [2012, Италия, драма, детектив, BDRemux 1080p] VO (PashaUP) + Original Ita + Sub (Rus, Ger)


 

[Цитировать]

Легенда о Каспаре Хаузере / La leggenda di Kaspar Hauser / The Legend of Kaspar Hauser Страна: Италия
Жанр: драма, детектив
Год выпуска: 2012
Продолжительность: 01:34:59
Перевод: Одноголосый закадровый PashaUP
Cубтитры: русские (exvet), немецкие
Оригинальная аудиодорожка: итальянский (мультиязыковая: итальянский, английский, французский)
Режиссер: Давид Манули / Davide Manuli
В ролях: Винсент Галло, Клаудия Джерини, Фабрицио Джифуни, Элиза Сенауи, Сильвия Калдерони, Марко Лампис
Описание:
Сюрреалистический постмодернистский вестерн, снятый на черно-белую пленку. Волны выносят Каспара Хаузера на пустынный пляж, где он сталкивается со злобной Великой Герцогиней. Ей кажется, что её абсолютная власть под угрозой, и, чтобы избавиться от непрошенного гостя, она обращается за помощью к опасному преступнику и своему любовнику Пушеру. Пушер точно знает, как устранить «противника». Но он не принимает во внимание Шерифа, который считает Каспара новым Мессией.
- -Тип релиза: BDRemux 1080p (The.Legend.of.Kaspar.Hauser.2012.GERMAN.SUBBED.COMPLETE.BLURAY-iFPD)

Контейнер: MKV
Видео: AVC (x264), 1920x1080 (16:9) at 24,000 fps, 24999 Кbps
Аудио 1: AC3; 192 Kbps; CBR; 2 ch; 48 khz | VO - PashaUP |
Аудио 2: AC3; 640 Kbps; CBR; 6 ch; 48 khz | Итальянский |
Формат субтитров: softsub (SRT)
Скриншоты || x264 Info || MediaInfo || NotesNotes: Русская аудио дорожка найдена на просторах интернета, из неё вырезанна реклама (на конечных титрах) - без пережатия
Русские субтитры, thx: exvet
За диск спасибы: davinanant / CTS

MediaInfo

Общее
Уникальный идентификатор                 : 213007771978939086888552551206079368600 (0xA03FCDFD289E7A55B456206AFE330D98)
Полное имя                               : Легенда о Каспаре Хаузере.2012.L1.1080p.BluRay.Remux.x264.mkv
Формат                                   : Matroska
Версия формата                           : Version 4 / Version 2
Размер файла                             : 16,2 Гбайт
Продолжительность                        : 1 ч. 34 м.
Общий поток                              : 24,4 Мбит/сек
Название фильма                          : The Legend of Kaspar Hauser [2012] [remux] VO
Дата кодирования                         : UTC 2014-10-31 13:44:34
Программа кодирования                    : mkvmerge v7.3.0 ('Nouages') 32bit built on Oct 22 2014 18:44:01
Библиотека кодирования                   : libebml v1.3.0 + libmatroska v1.4.1
Видео
Идентификатор                            : 1
Формат                                   : AVC
Формат/Информация                        : Advanced Video Codec
Профиль формата                          : High@L4.1
Параметр CABAC формата                   : Да
Параметр ReFrames формата                : 4 кадра
Идентификатор кодека                     : V_MPEG4/ISO/AVC
Продолжительность                        : 1 ч. 34 м.
Вид битрейта                             : Постоянный
Битрейт                                  : 23,1 Мбит/сек
Номинальный битрейт                      : 25,0 Мбит/сек
Ширина                                   : 1920 пикселей
Высота                                   : 1080 пикселей
Соотношение сторон                       : 16:9
Режим частоты кадров                     : Постоянный
Частота кадров                           : 24,000 кадра/сек
Стандарт вещания                         : NTSC
Цветовое пространство                    : YUV
Субдискретизация насыщенности            : 4:2:0
Битовая глубина                          : 8 бит
Тип развёртки                            : Прогрессивная
Бит/(Пиксели*Кадры)                      : 0.464
Размер потока                            : 15,3 Гбайт (95%)
Заголовок                                : MPEG-4 AVC Video / 24999 kbps / 1080p / 24 fps / 16:9 / High Profile 4.1 // profile.php?mode=viewprofile&u=22488948
Язык                                     : Italian
Default                                  : Да
Forced                                   : Нет
Основные цвета                           : BT.709
Характеристики трансфера                 : BT.709
Коэффициенты матрицы                     : BT.709
Аудио #1
Идентификатор                            : 2
Формат                                   : AC-3
Формат/Информация                        : Audio Coding 3
Расширение режима                        : CM (complete main)
Параметр Endianness формата              : Big
Идентификатор кодека                     : A_AC3
Продолжительность                        : 1 ч. 34 м.
Вид битрейта                             : Постоянный
Битрейт                                  : 192 Кбит/сек
Каналы                                   : 2 канала
Расположение каналов                     : Front: L R
Частота                                  : 48,0 КГц
Битовая глубина                          : 16 бит
Метод сжатия                             : С потерями
Размер потока                            : 130 Мбайт (1%)
Заголовок                                : VO [PashaUP]
Язык                                     : Russian
Default                                  : Да
Forced                                   : Нет
Аудио #2
Идентификатор                            : 3
Формат                                   : AC-3
Формат/Информация                        : Audio Coding 3
Расширение режима                        : CM (complete main)
Параметр Endianness формата              : Big
Идентификатор кодека                     : A_AC3
Продолжительность                        : 1 ч. 34 м.
Вид битрейта                             : Постоянный
Битрейт                                  : 640 Кбит/сек
Каналы                                   : 6 каналов
Расположение каналов                     : Front: L C R, Side: L R, LFE
Частота                                  : 48,0 КГц
Битовая глубина                          : 16 бит
Метод сжатия                             : С потерями
Размер потока                            : 435 Мбайт (3%)
Язык                                     : Italian
Default                                  : Нет
Forced                                   : Нет
Текст #1
Идентификатор                            : 4
Формат                                   : UTF-8
Идентификатор кодека                     : S_TEXT/UTF8
Идентификатор кодека/Информация          : UTF-8 Plain Text
Заголовок                                : [exvet]
Язык                                     : Russian
Default                                  : Нет
Forced                                   : Нет
Текст #2
Идентификатор                            : 5
Формат                                   : UTF-8
Идентификатор кодека                     : S_TEXT/UTF8
Идентификатор кодека/Информация          : UTF-8 Plain Text
Язык                                     : German
Default                                  : Нет
Forced                                   : Нет
Меню
00:00:00.000                             : en:00:00:00.000
00:04:40.375                             : en:00:04:40.375
00:11:25.375                             : en:00:11:25.375
00:23:46.250                             : en:00:23:46.250
00:27:31.625                             : en:00:27:31.625
00:29:37.292                             : en:00:29:37.292
00:37:35.125                             : en:00:37:35.125
00:55:11.792                             : en:00:55:11.792
00:58:18.792                             : en:00:58:18.792
01:05:25.250                             : en:01:05:25.250
01:10:55.208                             : en:01:10:55.208
01:15:55.917                             : en:01:15:55.917
01:25:01.708                             : en:01:25:01.708



Показать сообщения:    

Текущее время: 03-Дек 09:49

Часовой пояс: UTC + 3


Вы не можете начинать темы
Вы не можете отвечать на сообщения
Вы не можете редактировать свои сообщения
Вы не можете удалять свои сообщения
Вы не можете голосовать в опросах
Вы не можете прикреплять файлы к сообщениям
Вы не можете скачивать файлы