Святоша / Святой / Махапуруш / Mahapurush / The Holy Man (Сатьяджит Рай / Satyajit Ray) [1965 г., Индия, комедия, драма, BDRip 720p] Original Ben + Sub (Rus, Eng)


 

[Цитировать]

Святоша / Mahapurush / The Holy Man- Год выпуска: 1965
Страна: Индия
Жанр: комедия, драма
Продолжительность: 01:06:21
Перевод: Субтитры
Оригинальная аудиодорожка: Бенгальская
Cубтитры: Русские (nickk), английские-Режиссер: Сатьяджит Рей / Satyajit Ray
В ролях: Чарупракаш Гош, Роби Гош, Прасад Мукхерджи, Гитали Рой, Сатиндра Бхаттачарья, Сомен Бозе, Сантош Дутта, Ренука Рой-Описание:
После смерти жены адвокат Курупада Миттер (П.Мухерджи) не может найти себе покоя. Он и его дочь Бучи (Г.Рой) знакомятся со "святым человеком" Биринчи (Ч.Гош). Биринчи Баба утверждает, что над ним не властны годы. Он рассказывает удивительные истории о прошлом: о своих спорах с "Плутоном" о времени, о том, как он показал Эйнштейну формулу "E=mc2", был на короткой ноге с Христом и Буддой и т.д. У Биринчи Бабу много богатых приверженцев, и их число растёт. Гурупада решает стать учеником этого "святого человека".- | IMDb | Сэмпл-Качество: BDRip 720p (TG // Mahapurush 1965 GBR 1080p Blu-ray AVC LPCM 2.0, thx alfred21)
Контейнер: MKV
Видео: x264, 958x720 (1.33:1), 24 fps, 4912 kbps
Аудио: Бенгальский DTS 1.0, 48 kHz, 384 kbps, 24-bit
Формат субтитров: softsub (SRT)

Скриншоты

Source / Encode


MI

General
Unique ID : 185203633196190941239927069087505603700 (0x8B54EC1BBBDF79368133A12E51805C74)
Complete name : The Holy Man 1965 aka Mahapurush BDRip 720p x264-TG.mkv
Format : Matroska
Format version : Version 2
File size : 2.50 GiB
Duration : 1h 6mn
Overall bit rate : 5 403 Kbps
Movie name : Mahapurush / Святоша (1965) – RuTracker
Encoded date : UTC 2014-10-30 18:51:54
Writing application : mkvmerge v7.0.0 ('Where We Going') 64bit built on Jun 9 2014 15:16:27
Writing library : libebml v1.3.0 + libmatroska v1.4.1
Attachements : cover.jpg
Video
ID : 1
Format : AVC
Format/Info : Advanced Video Codec
Format profile : High@L4.1
Format settings, CABAC : Yes
Format settings, ReFrames : 12 frames
Codec ID : V_MPEG4/ISO/AVC
Duration : 1h 6mn
Bit rate : 4 912 Kbps
Width : 958 pixels
Height : 720 pixels
Display aspect ratio : 4:3
Frame rate mode : Constant
Frame rate : 24.000 fps
Color space : YUV
Chroma subsampling : 4:2:0
Bit depth : 8 bits
Scan type : Progressive
Bits/(Pixel*Frame) : 0.297
Stream size : 2.28 GiB (91%)
Title : The Holy Man 1965 aka Mahapurush GBR BDRip 720p x264-TG
Writing library : x264 core 130 r2273 b3065e6
Encoding settings : cabac=1 / ref=12 / deblock=1:-3:-3 / analyse=0x3:0x133 / me=umh / subme=11 / psy=1 / psy_rd=1.00:0.15 / mixed_ref=1 / me_range=32 / chroma_me=1 / trellis=2 / 8x8dct=1 / cqm=0 / deadzone=21,11 / fast_pskip=0 / chroma_qp_offset=-3 / threads=12 / lookahead_threads=2 / sliced_threads=0 / nr=0 / decimate=1 / interlaced=0 / bluray_compat=0 / constrained_intra=0 / bframes=9 / b_pyramid=2 / b_adapt=2 / b_bias=0 / direct=3 / weightb=1 / open_gop=0 / weightp=2 / keyint=240 / keyint_min=24 / scenecut=40 / intra_refresh=0 / rc_lookahead=180 / rc=crf / mbtree=1 / crf=18.5 / qcomp=0.60 / qpmin=0 / qpmax=69 / qpstep=4 / vbv_maxrate=12000 / vbv_bufsize=24000 / crf_max=0.0 / nal_hrd=none / ip_ratio=1.40 / aq=1:1.00
Language : Bengali
Default : Yes
Forced : No
Color primaries : BT.709
Transfer characteristics : BT.709
Matrix coefficients : BT.709
Audio
ID : 2
Format : DTS
Format/Info : Digital Theater Systems
Mode : 16
Format settings, Endianness : Big
Codec ID : A_DTS
Duration : 1h 6mn
Bit rate mode : Constant
Bit rate : 384 Kbps
Channel(s) : 2 channels
Channel positions : Front: L R
Sampling rate : 48.0 KHz
Bit depth : 24 bits
Compression mode : Lossy
Stream size : 182 MiB (7%)
Language : Bengali
Default : Yes
Forced : No
Text #1
ID : 3
Format : UTF-8
Codec ID : S_TEXT/UTF8
Codec ID/Info : UTF-8 Plain Text
Title : nickk
Language : Russian
Default : Yes
Forced : No
Text #2
ID : 4
Format : UTF-8
Codec ID : S_TEXT/UTF8
Codec ID/Info : UTF-8 Plain Text
Language : English
Default : No
Forced : No
Menu
00:00:00.000 : en:Chapter 01
00:06:41.875 : en:Chapter 02
00:12:54.666 : en:Chapter 03
00:18:11.250 : en:Chapter 04
00:25:08.375 : en:Chapter 05
00:35:48.625 : en:Chapter 06
00:38:35.000 : en:Chapter 07
00:41:35.458 : en:Chapter 08
00:46:28.041 : en:Chapter 09
00:53:40.458 : en:Chapter 10
01:01:08.625 : en:Chapter 11
01:04:54.833 : en:Chapter 12



Показать сообщения:    

Текущее время: 04-Дек 17:17

Часовой пояс: UTC + 3


Вы не можете начинать темы
Вы не можете отвечать на сообщения
Вы не можете редактировать свои сообщения
Вы не можете удалять свои сообщения
Вы не можете голосовать в опросах
Вы не можете прикреплять файлы к сообщениям
Вы не можете скачивать файлы