Такова спортивная жизнь / This Sporting Life (Линдсэй Андерсон / Lindsay Anderson) [1963, Великобритания, драма, BDRemux 1080p] MVO (ТРК "Культура") + DVO + Original Eng + Comments (Eng) + Sub Eng


 

[Цитировать]

Такова спортивная жизнь / This Sporting Life Страна: Великобритания
Жанр: Драма
Год выпуска: 1963
Продолжительность: 02:14:10
Перевод: Профессиональный (многоголосый закадровый) ТРК "Культура"
Перевод 2: Профессиональный (двухголосый закадровый)
Cубтитры: английские
Оригинальная аудиодорожка: английский
Режиссер: Линдсэй Андерсон / Lindsay Anderson
В ролях: Ричард Харрис, Хэрри Маркэм, Энн Каннингэм, Ванда Годселл, Уильям Хартнелл, Алан Бэдел, Джек Уотсон, Артур Лоу, Рэйчел Робертс, Колин Блэйкли
Описание: О судьбе Фрэнка Мэчина (Хэррис), бывшего шахтера из Йоркшира, надеявшегося "выбиться в люди", став профессиональным регбистом. Вокруг него увивается огромное количество женщин, Фрэнк же жаждет любви своей домовладелицы миссис Хэммонд (Робертс), ожесточившейся бесстрастной вдовы, которая в конце концов вступает с ним в физическую сексуальную связь, но и только. Пока Фрэнк остается любимцем и звездой своего клуба, менеджеров и болельщиков, пока он прекрасно играет на поле, все терпят его упрямый, мятежный характер. Миссис Хэммонд надоедает грубость Фрэнка, происходит ссора, он вынужден сменить квартиру. Осознав, насколько необходима была для него эта любовь, Фрэнк пытается помириться, но происходит трагедия. И Фрэнк остается один на один с жестоким и полным насилия миром регби…
Доп. информация: Из DVD The Criterion Collection добавлены аудиокомментарии
Сэмпл: http://sendfile.su/1042092
Тип релиза: BDRemux 1080p
Контейнер: MKV
Видео: MPEG-4 AVC, 1920x1080p (1.66:1), 23.976 fps, 17805 kbps
Аудио 1: Russian, AC3 2.0, 48 kHz, 192 kbps (Многоголосный, ТРК "Культура")
Аудио 2: Russian, AC3 2.0, 48 kHz, 192 kbps (Двухголосый)
Аудио 3: English, AC3 2.0, 48 kHz, 224 kbps (Оригинал)
Аудио 4: English, AC3 2.0, 48 kHz, 192 kbps (Audio commentary featuring Paul Ryan)
Формат субтитров: softsub (SRT)

MediaInfo

Format : Matroska
Format version : Version 4 / Version 2
File size : 17.4 GiB
Duration : 2h 14mn
Overall bit rate mode : Variable
Overall bit rate : 18.6 Mbps
Encoded date : UTC 2014-10-30 11:10:02
Writing application : mkvmerge v7.3.0 ('Nouages') 32bit built on Oct 22 2014 18:44:01
Writing library : libebml v1.3.0 + libmatroska v1.4.1
DURATION : 02:14:08.064000000
NUMBER_OF_FRAMES : 251502
NUMBER_OF_BYTES : 193153536
_STATISTICS_WRITING_APP : mkvmerge v7.3.0 ('Nouages') 32bit built on Oct 22 2014 18:44:01
_STATISTICS_WRITING_DATE_UTC : 2014-10-30 11:10:02
_STATISTICS_TAGS : BPS DURATION NUMBER_OF_FRAMES NUMBER_OF_BYTES
Video
ID : 1
Format : AVC
Format/Info : Advanced Video Codec
Format profile : High@L4.1
Format settings, CABAC : Yes
Format settings, ReFrames : 4 frames
Codec ID : V_MPEG4/ISO/AVC
Duration : 2h 14mn
Bit rate mode : Variable
Bit rate : 17.4 Mbps
Maximum bit rate : 23.7 Mbps
Width : 1 920 pixels
Height : 1 080 pixels
Display aspect ratio : 16:9
Frame rate mode : Constant
Frame rate : 23.976 fps
Standard : NTSC
Color space : YUV
Chroma subsampling : 4:2:0
Bit depth : 8 bits
Scan type : Progressive
Bits/(Pixel*Frame) : 0.351
Stream size : 16.3 GiB (94%)
Default : Yes
Forced : No
Color primaries : BT.709
Transfer characteristics : BT.709
Matrix coefficients : BT.709
Audio #1
ID : 2
Format : AC-3
Format/Info : Audio Coding 3
Mode extension : CM (complete main)
Format settings, Endianness : Big
Codec ID : A_AC3
Duration : 2h 14mn
Bit rate mode : Constant
Bit rate : 192 Kbps
Channel count : 2 channels
Channel positions : Front: L R
Sampling rate : 48.0 KHz
Bit depth : 16 bits
Compression mode : Lossy
Stream size : 184 MiB (1%)
Language : Russian
Default : Yes
Forced : No
Audio #2
ID : 3
Format : AC-3
Format/Info : Audio Coding 3
Mode extension : CM (complete main)
Format settings, Endianness : Big
Codec ID : A_AC3
Duration : 2h 14mn
Bit rate mode : Constant
Bit rate : 192 Kbps
Channel count : 2 channels
Channel positions : Front: L R
Sampling rate : 48.0 KHz
Bit depth : 16 bits
Compression mode : Lossy
Stream size : 184 MiB (1%)
Language : Russian
Default : No
Forced : No
Audio #3
ID : 4
Format : AC-3
Format/Info : Audio Coding 3
Mode extension : CM (complete main)
Format settings, Endianness : Big
Codec ID : A_AC3
Duration : 2h 14mn
Bit rate mode : Constant
Bit rate : 224 Kbps
Channel count : 2 channels
Channel positions : Front: L R
Sampling rate : 48.0 KHz
Bit depth : 16 bits
Compression mode : Lossy
Stream size : 215 MiB (1%)
Language : English
Default : No
Forced : No
Audio #4
ID : 5
Format : AC-3
Format/Info : Audio Coding 3
Mode extension : CM (complete main)
Format settings, Endianness : Big
Codec ID : A_AC3
Duration : 2h 14mn
Bit rate mode : Constant
Bit rate : 192 Kbps
Channel count : 2 channels
Channel positions : Front: L R
Sampling rate : 48.0 KHz
Bit depth : 16 bits
Compression mode : Lossy
Stream size : 184 MiB (1%)
Title : Audio commentary featuring Paul Ryan
Language : English
Default : No
Forced : No
Text
ID : 6
Format : UTF-8
Codec ID : S_TEXT/UTF8
Codec ID/Info : UTF-8 Plain Text
Language : English
Default : No
Forced : No
Menu
00:00:00.000 : ru:Глава 1
00:11:35.695 : ru:Глава 2
00:24:31.470 : ru:Глава 3
00:37:05.222 : ru:Глава 4
00:50:48.461 : ru:Глава 5
01:01:59.465 : ru:Глава 6
01:11:31.287 : ru:Глава 7
01:22:26.942 : ru:Глава 8
01:30:11.029 : ru:Глава 9
01:43:32.831 : ru:Глава 10
01:54:12.845 : ru:Глава 11
02:03:40.412 : ru:Глава 12
02:14:10.207 : ru:Глава 13

Скриншоты





Показать сообщения:    

Текущее время: 04-Дек 21:27

Часовой пояс: UTC + 3


Вы не можете начинать темы
Вы не можете отвечать на сообщения
Вы не можете редактировать свои сообщения
Вы не можете удалять свои сообщения
Вы не можете голосовать в опросах
Вы не можете прикреплять файлы к сообщениям
Вы не можете скачивать файлы