Загадочное убийство в Манхэттэне / Manhattan Murder Mystery (Вуди Аллен / Woody Allen) [1993, США, комедия, криминал, детектив, WEB-DL 720p] 2x DVO + MVO (Первый канал) + AVO (Л. Володарский) + Sub Eng + Original Eng


 

[Цитировать]

Загадочное убийство в Манхэттэне / Manhattan Murder Mystery
Страна: США
Студия: TriStar Pictures
Жанр: комедия, криминал, детектив
Год выпуска: 1993
Продолжительность: 01:47:30
Перевод: Профессиональный (двухголосый закадровый)
Перевод 2: Профессиональный (двухголосый закадровый)
Перевод 3: Профессиональный (многоголосый закадровый) Первый канал
Перевод 4: Авторский (одноголосый закадровый) Л. Володарский
Cубтитры: английские
Оригинальная аудиодорожка: английский
Режиссер: Вуди Аллен / Woody Allen
В ролях: Вуди Аллен, Дайан Китон, Джерри Адлер, Линн Коэн, Рон Рифкин, Джой Бехар, Уильям Эдди, Джон Думэниан, Сильвия Каудерс, Ира Вилер
Описание: Ларри и Кэрол — обычная супружеская пара, которая ничем не отличается от тысяч других нью-йорских семей. Но неожиданно спокойное и размеренное течение жизни нарушается, когда умирает жена их соседа. На первый взгляд, в этом несчастье нет ничего необычного. Однако наблюдательная Кэрол замечает, что вдовец не особенно скорбит об утрате.
Она начинает настоящее расследование, шаг за шагом приближаясь к разгадке. И когда новоиспеченной Агате Кристи кажется, что зловещая тайна вот — вот раскроется, она случайно узнает в окне проезжающего автобуса умершую женщину.

Sample
Тип релиза: WEB-DL 720p
Контейнер: MKV
Видео: MPEG4 AVC Video, H264, 16:9, 1280x720, 23.976 fps, 4144 kbps
Аудио: Russian (AC3, 2 ch, 192 kbps, 16 bits, 48.0 KHz) - DVO # 1
Аудио 2: Russian (AC3, 2 ch, 192 kbps, 16 bits, 48.0 KHz) - DVO # 2
Аудио 3: Russian (AC3, 2 ch, 192 kbps, 16 bits, 48.0 KHz) - Первый канал
Аудио 4: Russian (AC3, 2 ch, 192 kbps, 16 bits, 48.0 KHz) - Л. Володарский
Аудио 5: English (AC3, 2 ch, 192 kbps, 16 bits, 48.0 KHz) - оригинал
Формат субтитров: softsub (SRT)

MediaInfo

General
Unique ID : 240442464184475053741135523101091986727 (0xB4E388BF33C17E258F51390DF2067D27)
Complete name : L:\Manhattan Murder Mystery 1993 WEB-DL 720p.mkv
Format : Matroska
Format version : Version 4 / Version 2
File size : 3.91 GiB
Duration : 1h 47mn
Overall bit rate : 5 208 Kbps
Encoded date : UTC 2014-10-26 10:32:37
Writing application : mkvmerge v6.1.0 ('Old Devil') built on Mar 2 2013 14:32:37
Writing library : libebml v1.3.0 + libmatroska v1.4.0
Video
ID : 1
Format : AVC
Format/Info : Advanced Video Codec
Format profile : High@L3.1
Format settings, CABAC : No
Format settings, ReFrames : 2 frames
Codec ID : V_MPEG4/ISO/AVC
Duration : 1h 47mn
Bit rate : 4 144 Kbps
Width : 1 280 pixels
Height : 720 pixels
Display aspect ratio : 16:9
Frame rate mode : Constant
Frame rate : 23.976 fps
Color space : YUV
Chroma subsampling : 4:2:0
Bit depth : 8 bits
Scan type : Progressive
Bits/(Pixel*Frame) : 0.188
Stream size : 3.11 GiB (80%)
Language : English
Default : Yes
Forced : No
Color primaries : BT.709
Transfer characteristics : BT.709
Matrix coefficients : BT.709
Audio #1
ID : 2
Format : AC-3
Format/Info : Audio Coding 3
Mode extension : CM (complete main)
Format settings, Endianness : Big
Codec ID : A_AC3
Duration : 1h 47mn
Bit rate mode : Constant
Bit rate : 192 Kbps
Channel count : 2 channels
Channel positions : Front: L R
Sampling rate : 48.0 KHz
Bit depth : 16 bits
Compression mode : Lossy
Stream size : 148 MiB (4%)
Title : DVO 1
Language : Russian
Default : Yes
Forced : No
Audio #2
ID : 3
Format : AC-3
Format/Info : Audio Coding 3
Mode extension : CM (complete main)
Format settings, Endianness : Big
Codec ID : A_AC3
Duration : 1h 47mn
Bit rate mode : Constant
Bit rate : 192 Kbps
Channel count : 2 channels
Channel positions : Front: L R
Sampling rate : 48.0 KHz
Bit depth : 16 bits
Compression mode : Lossy
Stream size : 148 MiB (4%)
Title : DVO 2
Language : Russian
Default : No
Forced : No
Audio #3
ID : 4
Format : AC-3
Format/Info : Audio Coding 3
Mode extension : CM (complete main)
Format settings, Endianness : Big
Codec ID : A_AC3
Duration : 1h 47mn
Bit rate mode : Constant
Bit rate : 192 Kbps
Channel count : 2 channels
Channel positions : Front: L R
Sampling rate : 48.0 KHz
Bit depth : 16 bits
Compression mode : Lossy
Stream size : 148 MiB (4%)
Title : MVO
Language : Russian
Default : No
Forced : No
Audio #4
ID : 5
Format : AC-3
Format/Info : Audio Coding 3
Mode extension : CM (complete main)
Format settings, Endianness : Big
Codec ID : A_AC3
Duration : 1h 47mn
Bit rate mode : Constant
Bit rate : 192 Kbps
Channel count : 2 channels
Channel positions : Front: L R
Sampling rate : 48.0 KHz
Bit depth : 16 bits
Compression mode : Lossy
Stream size : 148 MiB (4%)
Title : Л. Володарский
Language : Russian
Default : No
Forced : No
Audio #5
ID : 6
Format : AC-3
Format/Info : Audio Coding 3
Mode extension : CM (complete main)
Format settings, Endianness : Big
Codec ID : A_AC3
Duration : 1h 47mn
Bit rate mode : Constant
Bit rate : 192 Kbps
Channel count : 2 channels
Channel positions : Front: L R
Sampling rate : 48.0 KHz
Bit depth : 16 bits
Compression mode : Lossy
Stream size : 148 MiB (4%)
Language : English
Default : No
Forced : No
Text
ID : 7
Format : UTF-8
Codec ID : S_TEXT/UTF8
Codec ID/Info : UTF-8 Plain Text
Language : English
Default : No
Forced : No
Menu
00:00:00.000 : en:Start
00:02:24.000 : en:Meeting The Houses
00:07:56.000 : en:Swap Meet
00:09:10.000 : en:Heart Attack
00:10:58.000 : en:At Elaine's
00:12:59.000 : en:Suspicious
00:16:38.000 : en:The First Clue
00:27:27.000 : en:Hide & Seek
00:31:17.000 : en:Larry & Marica
00:37:16.000 : en:Stakeout
00:41:15.000 : en:At The Theaatre
00:46:29.000 : en:Liptons Meet Marcia
00:48:01.000 : en:Wine-Tasting
00:49:58.000 : en:Spotting Mrs. House
00:55:22.000 : en:Tracking Lilian House
00:58:00.000 : en:Poker Lessons
01:02:46.000 : en:Room 611
01:07:58.000 : en:"Larry...The Lights!"
01:08:50.000 : en:Back To 611
01:11:02.000 : en:In The Elevator
01:15:35.000 : en:"Sing, Sing, Sing"
01:21:14.000 : en:How To Catch Him
01:28:10.000 : en:The Audition
01:30:07.000 : en:Cut & Splice
01:37:06.000 : en:Phoning Mr. House
01:38:31.000 : en:Calling His Bluff
01:39:39.000 : en:The Lady From Shanghai
01:42:38.000 : en:Marcia Explains All

Скриншоты




Показать сообщения:    

Текущее время: 11-Дек 05:23

Часовой пояс: UTC + 3


Вы не можете начинать темы
Вы не можете отвечать на сообщения
Вы не можете редактировать свои сообщения
Вы не можете удалять свои сообщения
Вы не можете голосовать в опросах
Вы не можете прикреплять файлы к сообщениям
Вы не можете скачивать файлы