Сладкая жизнь / La Dolce Vita (Федерико Феллини / Federico Fellini) [1960, Италия, Франция, драма, BDRemux 1080p] [Criterion Collection] 2x MVO + DVO + Sub (2x Rus, Eng) + Original Ita


 

[Цитировать]

Сладкая жизнь / La Dolce Vita
Страна: Италия, Франция
Жанр: драма
Год выпуска: 1960
Продолжительность: 02:55:46
Перевод: Профессиональный (многоголосый закадровый) SomeWax
Перевод: Профессиональный (многоголосый закадровый) Культура
Перевод: Профессиональный (двухголосый закадровый) R5
Cубтитры: русские (2 вида), английские
Оригинальная аудиодорожка: итальянский-Режиссер: Федерико Феллини / Federico Fellini
В ролях: Марчелло Мастроянни, Анита Экберг, Вальтер Сантессо, Анук Эме, Ивонн Фюрно, Магали Ноэль, Ален Кюни, Надя Грэй
Описание: Рим. Конец 1950-х годов. Герой фильма - журналист Марчелло - вращается в высшем свете. Когда-то Марчелло мечтал написать великий роман и прославиться. Теперь он разменял себя на десятки и сотни грошовых статеек в модных журналах. Он сам стал модным, его любит богема и женщины, он свой в кругу тех, кем принято восхищаться и боготворить. Трудно понять, нравится ли ему эта «сладкая жизнь», или ему просто трудно от нее отказаться.
IMDb || КиноПоиск-Тип релиза: BDRemux 1080p [La dolce vita 1960 1080p Blu-ray AVC LPCM 1.0 (thx raminmehr)]
Контейнер: MKV
Видео: MPEG-4 AVC Video, 1920x1080 at 23.976 fps, 22000 kbps
Аудио#1: Russian: 48 kHz, AC3, 2.0 ch, 192 kbps
Аудио#2: Russian: 48 kHz, AC3, 2.0 ch, 192 kbps
Аудио#3: Russian: 48 kHz, AC3, 2.0 ch, 192 kbps
Аудио#4: Italian: 48 kHz, LPCM, 1.0 ch, 1152 kbps
Формат субтитров: softsub (SRT)
Сэмпл

Дополнительно

Отечественные дорожки с раздачи BDRemux Тарантиныча. Подогнаны без перекодирования.

MediaInfo

General
Unique ID : 194120053395160349264508557613120221718 (0x920A2990AF8B2D64B2D97D475D19F216)
Complete name : I:\Сладкая жизнь\La.Dolce.Vita.1960.Criterion.BDRemux. rutracker.mkv
Format : Matroska
Format version : Version 2
File size : 29.1 GiB
Duration : 2h 55mn
Overall bit rate mode : Variable
Overall bit rate : 23.7 Mbps
Movie name : Release for RuTracker
Writing application : mkvmerge v5.0.1 ('Es ist Sommer') built on Nov 6 2011 16:23:40
Writing library : libebml v1.2.2 + libmatroska v1.3.0
Video
ID : 1
Format : AVC
Format/Info : Advanced Video Codec
Format profile : High@L4.1
Format settings, CABAC : Yes
Format settings, ReFrames : 4 frames
Codec ID : V_MPEG4/ISO/AVC
Duration : 2h 55mn
Bit rate mode : Variable
Maximum bit rate : 37.0 Mbps
Width : 1 920 pixels
Height : 1 080 pixels
Display aspect ratio : 16:9
Frame rate mode : Constant
Frame rate : 23.976 fps
Color space : YUV
Chroma subsampling : 4:2:0
Bit depth : 8 bits
Scan type : Progressive
Title : La.Dolce.Vita.1960.Criterion.BDRemux. rutracker
Language : Italian
Default : Yes
Forced : No
Audio #1
ID : 2
Format : AC-3
Format/Info : Audio Coding 3
Mode extension : CM (complete main)
Format settings, Endianness : Big
Codec ID : A_AC3
Duration : 2h 55mn
Bit rate mode : Constant
Bit rate : 192 Kbps
Channel(s) : 2 channels
Channel positions : Front: L R
Sampling rate : 48.0 KHz
Bit depth : 16 bits
Compression mode : Lossy
Stream size : 241 MiB (1%)
Title : SomeWax
Language : Russian
Default : Yes
Forced : No
Audio #2
ID : 3
Format : AC-3
Format/Info : Audio Coding 3
Mode extension : CM (complete main)
Format settings, Endianness : Big
Codec ID : A_AC3
Duration : 2h 55mn
Bit rate mode : Constant
Bit rate : 192 Kbps
Channel(s) : 2 channels
Channel positions : Front: L R
Sampling rate : 48.0 KHz
Bit depth : 16 bits
Compression mode : Lossy
Stream size : 241 MiB (1%)
Title : Культура
Language : Russian
Default : No
Forced : No
Audio #3
ID : 4
Format : AC-3
Format/Info : Audio Coding 3
Mode extension : CM (complete main)
Format settings, Endianness : Big
Codec ID : A_AC3
Duration : 2h 55mn
Bit rate mode : Constant
Bit rate : 192 Kbps
Channel(s) : 2 channels
Channel positions : Front: L R
Sampling rate : 48.0 KHz
Bit depth : 16 bits
Compression mode : Lossy
Stream size : 241 MiB (1%)
Title : R5
Language : Russian
Default : No
Forced : No
Audio #4
ID : 5
Format : PCM
Codec ID : A_PCM/INT/LIT
Duration : 2h 55mn
Bit rate mode : Constant
Sampling rate : 48.0 KHz
Bit depth : 24 bits
Language : Italian
Default : No
Forced : No
Text #1
ID : 6
Format : UTF-8
Codec ID : S_TEXT/UTF8
Codec ID/Info : UTF-8 Plain Text
Title : divxclub
Language : Russian
Default : No
Forced : No
Text #2
ID : 7
Format : UTF-8
Codec ID : S_TEXT/UTF8
Codec ID/Info : UTF-8 Plain Text
Title : R5
Language : Russian
Default : No
Forced : No
Text #3
ID : 8
Format : UTF-8
Codec ID : S_TEXT/UTF8
Codec ID/Info : UTF-8 Plain Text
Language : English
Default : No
Forced : No
Menu
00:00:00.000 : :1.Opening credits
00:03:19.782 : :2.Prologue: Christ over Rome
00:06:17.335 : :3.Maddalena
00:11:06.207 : :4.Meeting Ninni
00:15:45.444 : :5.Cessati Spiriti
00:20:13.420 : :6.Emma
00:24:50.697 : :7.Sylvia
00:32:13.264 : :8."Frankie Stout, a divine actor"
00:45:11.583 : :9.The streets and fountains of Rome
00:55:20.900 : :10.Steiner
00:59:20.306 : :11.The miracle
01:06:02.416 : :12."A huge crowd has gathered..."
01:16:01.139 : :13.Steiner's party
01:30:28.005 : :14.Paola
01:33:52.043 : :15.Marcello's father
01:39:01.310 : :16.The Cha-Cha
01:50:48.892 : :17."I have to leave"
01:57:48.644 : :18.Bassano di Sutri
02:06:02.388 : :19."Maddalena, do you hear me?"
02:09:40.731 : :20."Coming to hunt ghosts"
02:19:00.915 : :21."Why do you treat me this way?"
02:24:15.647 : :22.Steiner's tragedy
02:32:00.611 : :23.Nadia's party
02:50:03.776 : :24.A monster from the sea
02:55:08.289 : :25.End credits

Скриншоты

JPN vs Criterion



Показать сообщения:    

Текущее время: 03-Дек 14:39

Часовой пояс: UTC + 3


Вы не можете начинать темы
Вы не можете отвечать на сообщения
Вы не можете редактировать свои сообщения
Вы не можете удалять свои сообщения
Вы не можете голосовать в опросах
Вы не можете прикреплять файлы к сообщениям
Вы не можете скачивать файлы