Стеклянное сердце / Herz aus Glas (Вернер Херцог / Werner Herzog) [1976, Германия (ФРГ), драма, BDRip 720p] VO + Sub Rus, Eng + Original Ger


 

[Цитировать]

Стеклянное сердце / Herz aus Glas
Страна: Германия
Жанр: драма
Год выпуска: 1976
Продолжительность: 01:34:03
Перевод: Одноголосый закадровый
Cубтитры: русские, английские
Оригинальная аудиодорожка: немецкий
Режиссер: Вернер Херцог / Werner Herzog
В ролях: Йозеф Бирбихлер, Стефан Гуттлер, Клеменс Шейц
Описание: Умирает мастер-стеклодув, унеся с собой в могилу секрет изготовления рубинового стекла. Весь поселок жил за счет стеклодувного завода, и его владелец впадает в депрессию, пытаясь лихорадочно отыскать рецепт этого стекла. С гор спускается лесник (Бирбихлер), которого просят помочь, поскольку он обладает даром провидения. Режиссер вводил своих актеров в состояние гипноза для большей убедительности, но самое главное и удивительное в картине - это ее образность, которая завораживает зрителя с первых кадров: льющаяся с гор вода, персонажи, словно сошедшие с полотен Босха, и мрачные пророчества лесника.
Доп. информация:


издание BFI
Тип релиза: BDRip 720p| sample Скачать HDRip
Контейнер: MKV
Видео: H.264/AVC, 1176x720, 16:10, 24.00fps, 9238 Kbps
Аудио 1: Russian, DD 2.0, 48 kHz, 192 kbps
Аудио 2: German, FLAC 2.0, 48 kHz, ~339 kbps
Аудио 3: English, Vorbis 2.0, 48 kHz, ~71 kbps
Формат субтитров: softsub (SRT)

MI

General
Unique ID                                : 228572813546898506290490412967503378906 (0xABF585C9A8047D1EB6D3BD975AD0B9DA)
Complete name                            : Herz aus Glas 1976 720p Bluray FLAC rus ger.mkv
Format                                   : Matroska
Format version                           : Version 4 / Version 2
File size                                : 6.47 GiB
Duration                                 : 1h 34mn
Overall bit rate mode                    : Variable
Overall bit rate                         : 9 848 Kbps
Movie name                               : Herz aus Glas (1976)
Encoded date                             : UTC 2014-10-25 13:27:19
Writing application                      : mkvmerge v7.1.0 ('Good Love') 64bit built on Jul 27 2014 13:06:55
Writing library                          : libebml v1.3.0 + libmatroska v1.4.1
DURATION                                 : 01:34:03.500000000
NUMBER_OF_FRAMES                         : 66135
NUMBER_OF_BYTES                          : 239802989
_STATISTICS_WRITING_APP                  : mkvmerge v7.1.0 ('Good Love') 64bit built on Jul 27 2014 13:06:55
_STATISTICS_WRITING_DATE_UTC             : 2014-10-25 13:27:19
_STATISTICS_TAGS                         : BPS DURATION NUMBER_OF_FRAMES NUMBER_OF_BYTES
Video
ID                                       : 1
Format                                   : AVC
Format/Info                              : Advanced Video Codec
Format profile                           : High@L4.1
Format settings, CABAC                   : Yes
Format settings, ReFrames                : 9 frames
Codec ID                                 : V_MPEG4/ISO/AVC
Duration                                 : 1h 34mn
Width                                    : 1 176 pixels
Height                                   : 720 pixels
Display aspect ratio                     : 16:10
Frame rate mode                          : Constant
Frame rate                               : 24.000 fps
Color space                              : YUV
Chroma subsampling                       : 4:2:0
Bit depth                                : 8 bits
Scan type                                : Progressive
Writing library                          : x264 core 142 r2453kMod ea0ca51
Encoding settings                        : cabac=1 / ref=9 / deblock=1:-3:-3 / analyse=0x3:0x133 / me=tesa / subme=10 / psy=1 / fade_compensate=0.00 / psy_rd=1.10:0.00 / mixed_ref=1 / me_range=16 / chroma_me=1 / trellis=2 / 8x8dct=1 / cqm=0 / deadzone=21,11 / fast_pskip=1 / chroma_qp_offset=-2 / threads=6 / lookahead_threads=1 / sliced_threads=0 / nr=0 / decimate=1 / interlaced=0 / bluray_compat=0 / constrained_intra=0 / fgo=0 / bframes=8 / b_pyramid=2 / b_adapt=2 / b_bias=0 / direct=3 / weightb=1 / open_gop=0 / weightp=2 / keyint=250 / keyint_min=24 / scenecut=40 / intra_refresh=0 / rc_lookahead=60 / rc=crf / mbtree=0 / crf=17.5000 / qcomp=0.65 / qpmin=0 / qpmax=69 / qpstep=4 / vbv_maxrate=50000 / vbv_bufsize=62500 / crf_max=0.0 / nal_hrd=none / filler=0 / ip_ratio=1.30 / pb_ratio=1.20 / aq=2:0.70
Language                                 : English
Default                                  : Yes
Forced                                   : No
DURATION                                 : 01:34:03.500000000
NUMBER_OF_FRAMES                         : 135444
NUMBER_OF_BYTES                          : 6517377261
_STATISTICS_WRITING_APP                  : mkvmerge v7.1.0 ('Good Love') 64bit built on Jul 27 2014 13:06:55
_STATISTICS_WRITING_DATE_UTC             : 2014-10-25 13:27:19
_STATISTICS_TAGS                         : BPS DURATION NUMBER_OF_FRAMES NUMBER_OF_BYTES
Audio #1
ID                                       : 2
Format                                   : AC-3
Format/Info                              : Audio Coding 3
Mode extension                           : CM (complete main)
Format settings, Endianness              : Big
Codec ID                                 : A_AC3
Duration                                 : 1h 34mn
Bit rate mode                            : Constant
Bit rate                                 : 192 Kbps
Channel(s)                               : 2 channels
Channel positions                        : Front: L R
Sampling rate                            : 48.0 KHz
Bit depth                                : 16 bits
Compression mode                         : Lossy
Stream size                              : 129 MiB (2%)
Title                                    : VO
Language                                 : Russian
Default                                  : Yes
Forced                                   : No
Audio #2
ID                                       : 3
Format                                   : FLAC
Format/Info                              : Free Lossless Audio Codec
Codec ID                                 : A_FLAC
Duration                                 : 1h 34mn
Bit rate mode                            : Variable
Channel(s)                               : 1 channel
Sampling rate                            : 48.0 KHz
Bit depth                                : 16 bits
Writing library                          : libFLAC 1.2.1 (UTC 2007-09-17)
Language                                 : German
Default                                  : No
Forced                                   : No
Audio #3
ID                                       : 4
Format                                   : Vorbis
Format settings, Floor                   : 1
Codec ID                                 : A_VORBIS
Duration                                 : 1h 34mn
Bit rate mode                            : Variable
Bit rate                                 : 80.0 Kbps
Channel(s)                               : 2 channels
Sampling rate                            : 48.0 KHz
Compression mode                         : Lossy
Stream size                              : 53.8 MiB (1%)
Title                                    : commentary with Werner Herzog and Norman Hill
Writing library                          : Lancer 20110424 (UTC 2011-04-24)
Language                                 : English
Default                                  : No
Forced                                   : No
Text #1
ID                                       : 5
Format                                   : UTF-8
Codec ID                                 : S_TEXT/UTF8
Codec ID/Info                            : UTF-8 Plain Text
Language                                 : Russian
Default                                  : No
Forced                                   : No
Text #2
ID                                       : 6
Format                                   : UTF-8
Codec ID                                 : S_TEXT/UTF8
Codec ID/Info                            : UTF-8 Plain Text
Language                                 : English
Default                                  : No
Forced                                   : No
Text #3
ID                                       : 7
Format                                   : PGS
Muxing mode                              : zlib
Codec ID                                 : S_HDMV/PGS
Codec ID/Info                            : The same subtitle format used on BDs/HD-DVDs
Language                                 : English
Default                                  : No
Forced                                   : No
Menu
00:00:00.000                             : en:00:00:00.000
00:07:45.625                             : en:00:07:45.625
00:11:04.333                             : en:00:11:04.333
00:18:50.250                             : en:00:18:50.250
00:29:04.833                             : en:00:29:04.833
00:34:27.667                             : en:00:34:27.667
00:43:03.500                             : en:00:43:03.500
00:51:37.792                             : en:00:51:37.792
00:56:40.708                             : en:00:56:40.708
01:05:00.042                             : en:01:05:00.042
01:15:32.500                             : en:01:15:32.500
01:22:42.875                             : en:01:22:42.875

Скриншоты




Показать сообщения:    

Текущее время: 11-Дек 01:26

Часовой пояс: UTC + 3


Вы не можете начинать темы
Вы не можете отвечать на сообщения
Вы не можете редактировать свои сообщения
Вы не можете удалять свои сообщения
Вы не можете голосовать в опросах
Вы не можете прикреплять файлы к сообщениям
Вы не можете скачивать файлы