Ночь на Земле / Night On Earth (Джим Джармуш / Jim Jarmusch) [1991, Франция, Великобритания, Германия, США, Япония, драма, комедия, BDRip 720p] AVO (Горчаков) + MVO + Sub Rus, Eng + Original Eng


 

[Цитировать]

Ночь на Земле / Night On Earth
Страна: Франция, Великобритания, Германия (ФРГ), США, Япония
Студия: Victor Company of Japan Ltd. (JVC) & Victor Musical Industries
Жанр: драма, комедия
Год выпуска: 1991
Продолжительность: 02:07:57
Перевод 1: Авторский (одноголосый закадровый) ВАСИЛИЙ ГОРЧАКОВ
Перевод 2: Профессиональный (многоголосый закадровый)
Cубтитры: русские, английские
Оригинальная аудиодорожка: английский
Режиссер: Джим Джармуш / Jim Jarmusch
В ролях: Матти Пеллонпаа /Matti Pellonpaa/, Айзэк Де Банколе /Isaach de Bankole/, Беатрис Даль /Beatrice Dalle/, Армин Мюллер-Шталь /Armin Mueller-Stahl/, Вайнона Райдер /Winona Ryder/, Джанкарло Эспозито /Giancarlo Esposito/, Рози Перес /Rosie Perez/, Джина Роулэндс /Gena Rowlands/, Роберто Бениньи /Roberto Benigni/
Описание: Экзистенциалистская комедия Джармуша "Ночь на Земле" - это легко воспринимаемое продолжение его предыдущий картины "Таинственный поезд". Начав кадром из космоса, постепенно сужающегося круга на планете Земля, режиссер охватывает пятью отдельными сегментами свою любимую тему одиноких людей, взаимодействующих друг с другом, но в конце концов остающихся с пустотой один на один. Из этой космической бесконечности он рассматривает короткие встречи между таксистами и ночными пассажирами. Первый сегмент Лос-Анджелеса самый слабый в картине. Уайнона Райдер в роли таксиста с мальчишескими ухватками вступает в контакт с Джиной Роулэндс. Резким контрастом с этой темой выступает мощный финал, имеющий место в Хельсинки с труппой братьев Каурисмяки. Матти Пеллонпаа в самом деле ведет такси, изливая свою трагическую историю трем подвыпившим парням. Это оставшаяся без сочувствия история веры и любви. По дороге к этому печальному финалу, Джармуш вставляет два прекрасных комедийных эпизода: уморительную и неправдоподобную группу (в одинаковых зимних шапках) из Джанкарло Эспозито и Армин Мюллер-Шталя в Нью-Йорке, остолбенело слушающих монолог Роберто Бениньи в роли католического таксиста, исповедующегося священнику на заднем сиденьи в своих сексуальных грехах, включая таких партнеров, как тыква и овца по имени Лола.
Сегмент в Париже рассказывает об отношениях между обозленной слепой женщиной и уроженца Берега Слоновой Кости водителя Айзэка Де Банколе. Съемки ведутся на языка той страны, в которой происходит действие. (Иванов М.)
Кофе, сигареты и ночь…
Знакомство с творчеством Джима Джармуша я начал в 2003 году после просмотра его фильма «Кофе и сигареты». Та уникальная атмосфера, которую режиссер сумел воссоздать, настолько поразила меня, что я на долгие годы стал поклонником его творчества. «Ночь на Земле» была третьим его фильмом, увиденным мною.
Фильм завораживает с самых первых минут, удивительный саундтрек Тома Вейтса, медленное, неторопливое развитие сюжета буквально не дает оторваться от экрана ни на минуту. Поверьте, 2 часа вашей жизни пролетят незаметно. Особенно хорошо смотреть это произведение ночью, эффект легкого опьянения гарантирован.
Пять разных такси. Пять городов. И пять историй, очень не похожих друг на друга. Пафосный Лос-Анджелес, равнодушный Нью-Йорк, пикантный Париж, уснувший Рим, молчаливый Хельсинки — все сливается воедино, образуя нечто неповторимое, не поддающееся никакому объяснению. Этот фильм можно только почувствовать.
По ходу фильма меняется и настроение самого повествования. Начав с незамысловатой истории о встрече таксистки и кинопродюсера, Джармуш ведет нас от юмора к легкой, философской меланхолии, закончив печальной историей таксиста из Хельсинки.
Великолепное кино, обязательное к просмотру. Хотел поставить 11, но тут максимум 10.
Так что, 10+ из 10 (Kamal Sabirov)
------------------------------------------------------
Оператор: Фредерик Элмс /Frederick Elmes/
Сценарист: Джим Джармуш /Jim Jarmusch/
Продюсер: Джим Джармуш /Jim Jarmusch/
Художник Йохан Ле Тенё /Johan le Tenoux
Монтажер: Джей Рабиновиц /Jay Rabinowitz/
Композитор: Том Уэйтс /Tom Waits/
--------------------------------------------------
КИНОПОИСК. RU
РЕЙТИНГ ФИЛЬМА: 8.111 оценки: 8965
7,6/10 from 28 804 users
--------------------------------------------------
Доп. информация: Видеоряд >>> Night on Earth 1991 720p BluRay FLAC2 0 x264-CRiSC
За предоставленный рип большое спасибо xfiles
--------------------------------------------------
СЭМПЛ
--------------------------------------------------
Тип релиза: BDRip 720p
Формат видео: MKV
Видео: H.264; 1278x720; 23.976 fps; ~ 11.0 Mbps; 0.498 Bits/Pixel
Аудио 1: Russian - 48 kHz, AC3, 2/0 (L,R) 2ch, ~ 192 kbps - Василий Горчаков
Аудио 3: Russian - 48 kHz, AC3, 2/0 (L,R) 2ch, 192 kbps, - MVO
Аудио 2: English - 48 kHz, AC3, 2/0 (L,R) 2ch, 640 kbps, - Original
Формат субтитров: Все (*UTF-8)

MediaInfo

General
Complete name : F:\EXCLUZIVE=19\НОЧЬ НА ЗЕМЛЕ=Night On Earth 1991\NIGHT ON EARTH.1991.mkv\Night.on.Earth.1991.720p.BluRay.x264-CRiSC.mkv
Format : Matroska
File size : 10.9 GiB
Duration : 2h 7mn
Overall bit rate : 12.2 Mbps
Encoded date : UTC 2014-10-18 17:05:14
Writing application : mkvmerge v3.3.0 ('Language') built on Mar 24 2010 14:59:24
Writing library : libebml v0.8.0 + libmatroska v0.9.0
Cover : Cover/thumbnail / Second pass of x264 output
Video
ID : 1
Format : AVC
Format/Info : Advanced Video Codec
Format profile : High@L4.1
Format settings, CABAC : Yes
Format settings, ReFrames : 9 frames
Muxing mode : Container profile=Unknown@4.1
Codec ID : V_MPEG4/ISO/AVC
Duration : 2h 7mn
Bit rate : 11.0 Mbps
Width : 1 278 pixels
Height : 720 pixels
Display aspect ratio : 16:9
Frame rate : 23.976 fps
Color space : YUV
Chroma subsampling : 4:2:0
Bit depth : 8 bits
Scan type : Progressive
Bits/(Pixel*Frame) : 0.498
Stream size : 9.81 GiB (90%)
Title : Night on Earth (1991)
Writing library : x264 core 142 r2453kMod ea0ca51
Encoding settings : cabac=1 / ref=9 / deblock=1:-3:-3 / analyse=0x3:0x133 / me=umh / subme=11 / psy=1 / fade_compensate=0.00 / psy_rd=0.90:0.00 / mixed_ref=1 / me_range=64 / chroma_me=1 / trellis=2 / 8x8dct=1 / cqm=0 / deadzone=21,11 / fast_pskip=0 / chroma_qp_offset=-2 / threads=12 / lookahead_threads=3 / sliced_threads=0 / nr=0 / decimate=0 / interlaced=0 / bluray_compat=0 / constrained_intra=0 / fgo=0 / bframes=12 / b_pyramid=2 / b_adapt=2 / b_bias=0 / direct=3 / weightb=1 / open_gop=0 / weightp=2 / keyint=250 / keyint_min=23 / scenecut=40 / intra_refresh=0 / rc_lookahead=40 / rc=crf / mbtree=0 / crf=17.4000 / qcomp=0.70 / qpmin=0 / qpmax=69 / qpstep=4 / vbv_maxrate=50000 / vbv_bufsize=62500 / crf_max=0.0 / nal_hrd=none / filler=0 / ip_ratio=1.10 / pb_ratio=1.10 / aq=1:0.50
Language : English
Color primaries : BT.709-5, BT.1361, IEC 61966-2-4, SMPTE RP177
Transfer characteristics : BT.709-5, BT.1361
Matrix coefficients : BT.709-5, BT.1361, IEC 61966-2-4 709, SMPTE RP177
Audio #1
ID : 2
Format : AC-3
Format/Info : Audio Coding 3
Mode extension : CM (complete main)
Codec ID : A_AC3
Duration : 2h 7mn
Bit rate mode : Constant
Bit rate : 192 Kbps
Channel(s) : 2 channels
Channel positions : Front: L R
Sampling rate : 48.0 KHz
Stream size : 176 MiB (2%)
Title : AVO Горчаков @ AC3 2ch. @ 192 kbps
Language : Russian
Audio #2
ID : 3
Format : AC-3
Format/Info : Audio Coding 3
Mode extension : CM (complete main)
Codec ID : A_AC3
Duration : 2h 7mn
Bit rate mode : Constant
Bit rate : 192 Kbps
Channel(s) : 2 channels
Channel positions : Front: L R
Sampling rate : 48.0 KHz
Stream size : 176 MiB (2%)
Title : MVO @ AC3 2ch. @ 192 kbps
Language : Russian
Audio #3
ID : 4
Format : AC-3
Format/Info : Audio Coding 3
Mode extension : CM (complete main)
Codec ID : A_AC3
Duration : 2h 7mn
Bit rate mode : Constant
Bit rate : 640 Kbps
Channel(s) : 2 channels
Channel positions : Front: L R
Sampling rate : 48.0 KHz
Stream size : 586 MiB (5%)
Title : Original @ AC3 2.0 @ 640 kbps
Language : English
Text #1
ID : 5
Format : UTF-8
Codec ID : S_TEXT/UTF8
Codec ID/Info : UTF-8 Plain Text
Title : (* UTF-8)
Language : Russian
Text #2
ID : 6
Format : UTF-8
Codec ID : S_TEXT/UTF8
Codec ID/Info : UTF-8 Plain Text
Title : (* UTF-8)
Language : English
Text #3
ID : 7
Format : UTF-8
Codec ID : S_TEXT/UTF8
Codec ID/Info : UTF-8 Plain Text
Title : forced
Language : English
Text #4
ID : 8
Format : UTF-8
Codec ID : S_TEXT/UTF8
Codec ID/Info : UTF-8 Plain Text
Title : full
Language : English
Text #5
ID : 9
Format : UTF-8
Codec ID : S_TEXT/UTF8
Codec ID/Info : UTF-8 Plain Text
Title : sdh
Language : English
Menu
00:00:00.000 : en:00:00:00.000
00:10:50.066 : en:00:10:50.066
00:26:55.030 : en:00:26:55.030
00:38:06.367 : en:00:38:06.367
00:42:02.770 : en:00:42:02.770
00:51:12.528 : en:00:51:12.528
00:56:33.557 : en:00:56:33.557
01:10:23.845 : en:01:10:23.845
01:17:46.287 : en:01:17:46.287
01:32:56.821 : en:01:32:56.821
01:36:43.172 : en:01:36:43.172
01:56:43.955 : en:01:56:43.955
Скриншоты">

Скриншот c названием фильма Скриншоты


, ,
, ,
, ,



Показать сообщения:    

Текущее время: 09-Дек 20:31

Часовой пояс: UTC + 3


Вы не можете начинать темы
Вы не можете отвечать на сообщения
Вы не можете редактировать свои сообщения
Вы не можете удалять свои сообщения
Вы не можете голосовать в опросах
Вы не можете прикреплять файлы к сообщениям
Вы не можете скачивать файлы