Меланхолическая курица / Kure melancholik (Ярослав Брабец / Jaroslav Brabec) [1999, Чехия, драма, HDTVRip 720p] DVO + Original Cze


 

[Цитировать]

Меланхолическая курица / Kuře melancholik
Страна: Чехия
Жанр: драма
Год выпуска: 1999
Продолжительность: 01:57:06
Перевод: Профессиональный (двухголосый закадровый)
Cубтитры: нет
Оригинальная аудиодорожка: чешский
Режиссер: Ярослав Брабец / Jaroslav Brabec
В ролях: Карэл Роден, Анна Гейслерова, Радко Хромек, Власта Храмостова, Мартин Хуба
Описание: Чешская драма, о растущем без матери мальчике - сыне фермера, для которого единственным близким существом становится цыпленок.
Одинокий малолетний сын фермера Лойзик, мать которого трагически погибла, находит компанию в "лице" цыпленка, мать которого была убита ястребом в день похорон его мамы... Все начиналось четыре года назад, когда на танцы приехали две сестры, одна из них - настоящая красавица, сразу понравилась будущему отцу Лойзика. С тех пор все было почти идеально, но однажды молния ударила в дерево, и от падения тяжелой ветки Мари, мать мальчика, погибла. С этого дня у них с отцом начались тяжелые времена...

Доп. информация:


Тип релиза: HDTVRip 720p| DON | sample
Контейнер: MKV
Видео: H.264/AVC, 1280x544, 2.35:1, 25.00fps, 6675 Kbps
Аудио: Russian, DD 2.0, 48 kHz, 192 kbps
Аудио 2: Czech, MP2, 2.0, 48 kHz, 256 kbps

MediaInfo

General
Unique ID                                : 247845479957754719572208658513955256418 (0xBA754D9ACA62B14D94ECAF499C79F862)
Complete name                            : Kure.melancholik.1999.720p.HDTV.x264.rus.cze.mkv
Format                                   : Matroska
Format version                           : Version 4 / Version 2
File size                                : 5.94 GiB
Duration                                 : 1h 57mn
Overall bit rate                         : 7 267 Kbps
Movie name                               : Kuře melancholik (1999)
Encoded date                             : UTC 2014-10-17 06:48:40
Writing application                      : mkvmerge v7.1.0 ('Good Love') 64bit built on Jul 27 2014 13:06:55
Writing library                          : libebml v1.3.0 + libmatroska v1.4.1
DURATION                                 : 01:57:06.848000000
NUMBER_OF_FRAMES                         : 219589
NUMBER_OF_BYTES                          : 168644352
_STATISTICS_WRITING_APP                  : mkvmerge v7.1.0 ('Good Love') 64bit built on Jul 27 2014 13:06:55
_STATISTICS_WRITING_DATE_UTC             : 2014-10-17 06:48:40
_STATISTICS_TAGS                         : BPS DURATION NUMBER_OF_FRAMES NUMBER_OF_BYTES
Video
ID                                       : 1
Format                                   : AVC
Format/Info                              : Advanced Video Codec
Format profile                           : High@L4.1
Format settings, CABAC                   : Yes
Format settings, ReFrames                : 12 frames
Codec ID                                 : V_MPEG4/ISO/AVC
Duration                                 : 1h 57mn
Bit rate                                 : 6 675 Kbps
Width                                    : 1 280 pixels
Height                                   : 544 pixels
Display aspect ratio                     : 2.35:1
Frame rate mode                          : Constant
Frame rate                               : 25.000 fps
Color space                              : YUV
Chroma subsampling                       : 4:2:0
Bit depth                                : 8 bits
Scan type                                : Progressive
Bits/(Pixel*Frame)                       : 0.383
Stream size                              : 5.46 GiB (92%)
Writing library                          : x264 core 142 r2431+42 c69a006 tMod [8-bit@all X86_64]
Encoding settings                        : cabac=1 / ref=12 / deblock=1:-3:-3 / analyse=0x3:0x133 / me=tesa / subme=10 / psy=1 / fade_compensate=0.00 / psy_rd=1.05:0.00 / mixed_ref=1 / me_range=24 / chroma_me=1 / trellis=2 / 8x8dct=1 / cqm=0 / deadzone=21,11 / fast_pskip=0 / chroma_qp_offset=-2 / threads=12 / lookahead_threads=2 / sliced_threads=0 / nr=0 / decimate=0 / interlaced=0 / bluray_compat=0 / constrained_intra=0 / fgo=0 / bframes=8 / b_pyramid=2 / b_adapt=2 / b_bias=0 / direct=3 / weightb=1 / open_gop=0 / weightp=2 / keyint=250 / keyint_min=25 / scenecut=40 / intra_refresh=0 / rc_lookahead=60 / rc=crf / mbtree=0 / crf=16.5000 / qcomp=0.65 / qpmin=0:0:0 / qpmax=69:69:69 / qpstep=4 / vbv_maxrate=62500 / vbv_bufsize=78125 / crf_max=0.0 / nal_hrd=none / filler=0 / ip_ratio=1.30 / pb_ratio=1.20 / aq=4:0.70 / aq-sensitivity=10.00 / aq-factor=1.00:1.00:1.00 / aq2=0 / aq3=0
Language                                 : Czech
Default                                  : Yes
Forced                                   : No
Audio #1
ID                                       : 2
Format                                   : AC-3
Format/Info                              : Audio Coding 3
Mode extension                           : CM (complete main)
Format settings, Endianness              : Big
Codec ID                                 : A_AC3
Duration                                 : 1h 57mn
Bit rate mode                            : Constant
Bit rate                                 : 192 Kbps
Channel(s)                               : 2 channels
Channel positions                        : Front: L R
Sampling rate                            : 48.0 KHz
Bit depth                                : 16 bits
Compression mode                         : Lossy
Stream size                              : 161 MiB (3%)
Title                                    : DVO
Language                                 : Russian
Default                                  : Yes
Forced                                   : No
Audio #2
ID                                       : 3
Format                                   : MPEG Audio
Format version                           : Version 1
Format profile                           : Layer 2
Codec ID                                 : A_MPEG/L2
Codec ID/Hint                            : MP2
Duration                                 : 1h 57mn
Bit rate mode                            : Constant
Bit rate                                 : 256 Kbps
Channel(s)                               : 2 channels
Sampling rate                            : 48.0 KHz
Compression mode                         : Lossy
Stream size                              : 214 MiB (4%)
Language                                 : Czech
Default                                  : No
Forced                                   : No

Скриншоты




Показать сообщения:    

Текущее время: 10-Дек 04:13

Часовой пояс: UTC + 3


Вы не можете начинать темы
Вы не можете отвечать на сообщения
Вы не можете редактировать свои сообщения
Вы не можете удалять свои сообщения
Вы не можете голосовать в опросах
Вы не можете прикреплять файлы к сообщениям
Вы не можете скачивать файлы