Ночь у Мод / Ma nuit chez Maud / My Night at Maud's (Эрик Ромер / Eric Rohmer) [1969 г., Франция, драма, BDRip 720p] DVO (Видеоимпульс) + VO + Original Fre + Sub (Rus, Eng)


 

[Цитировать]

Ночь у Мод / Ma nuit chez Maud / My Night at Maud's- Год выпуска: 1969
Страна: Франция
Жанр: драма
Продолжительность: 01:45:40
Перевод:
  • Профессиональный (двухголосый закадровый) Видеоимпульс
  • Одноголосый закадровый
Оригинальная аудиодорожка: Французская
Cубтитры: Русские (R5), английские-Режиссер: Эрик Ромер / Eric Rohmer
В ролях: Жан-Луи Трентиньян, Франсуаза Фабиан, Мари-Кристин Барро, Антуан Витез, Леонид Коган, Гай Леже-Описание:
Если Вы — холосты и довольно долго жили вдали от дома, то по возвращению на родину у вас может, как у героя фильма, возникнуть желание осесть и завести семью. И вот наш герой в тишине Академгородка, в воскресный день при посещении церкви встречает юную блондинку, в которой уже видит свою будущую жену. Но не тут — то было! Неожиданная встреча с бывшим однокурсником и последовавшие за ней события в Рождественскую ночь приводят его к Мод…- | | Сэмпл-Качество: BDRip 720p (MELiTE)
Контейнер: MKV
Видео: 960x720 (1.33:1), 25 fps, 5154 kbps
Аудио 1: Русский AC3 1.0, 48 kHz, 192 kbps — Видеоимпульс
Аудио 2: Русский AC3 1.0, 48 kHz, 192 kbps — VO
Аудио 3: Французский DTS 1.0, 48 kHz, 768 kbps, 16-bit
Формат субтитров: softsub (SRT)

Скриншоты


MI

General
Unique ID : 172324939025305097439646651163030115267 (0x81A49376443B03ABADE6F28C221CD3C3)
Complete name : My.Night.At.Mauds.1969.720p.BluRay.x264-MELiTE.mkv
Format : Matroska
Format version : Version 2
File size : 4.66 GiB
Duration : 1h 45mn
Overall bit rate : 6 309 Kbps
Movie name : Ma nuit chez Maud / Ночь у Мод (1969)
Encoded date : UTC 2014-10-13 20:10:10
Writing application : mkvmerge v7.0.0 ('Where We Going') 64bit built on Jun 9 2014 15:16:27
Writing library : libebml v1.3.0 + libmatroska v1.4.1
Attachment : Yes
Video
ID : 1
Format : AVC
Format/Info : Advanced Video Codec
Format profile : High@L4.1
Format settings, CABAC : Yes
Format settings, ReFrames : 5 frames
Codec ID : V_MPEG4/ISO/AVC
Duration : 1h 45mn
Bit rate : 5 154 Kbps
Width : 960 pixels
Height : 720 pixels
Display aspect ratio : 4:3
Frame rate mode : Constant
Frame rate : 25.000 fps
Color space : YUV
Chroma subsampling : 4:2:0
Bit depth : 8 bits
Scan type : Progressive
Bits/(Pixel*Frame) : 0.298
Stream size : 3.71 GiB (80%)
Title : My.Night.At.Mauds.1969.720p.BluRay.x264-MELiTE
Writing library : x264 core 142 r2453 ea0ca51
Encoding settings : cabac=1 / ref=5 / deblock=1:0:0 / analyse=0x3:0x113 / me=umh / subme=7 / psy=1 / psy_rd=1.00:0.00 / mixed_ref=1 / me_range=16 / chroma_me=1 / trellis=1 / 8x8dct=1 / cqm=0 / deadzone=21,11 / fast_pskip=0 / chroma_qp_offset=-2 / threads=12 / lookahead_threads=2 / sliced_threads=0 / nr=0 / decimate=1 / interlaced=0 / bluray_compat=0 / constrained_intra=0 / bframes=3 / b_pyramid=2 / b_adapt=1 / b_bias=0 / direct=1 / weightb=1 / open_gop=0 / weightp=2 / keyint=250 / keyint_min=25 / scenecut=40 / intra_refresh=0 / rc_lookahead=40 / rc=2pass / mbtree=1 / bitrate=5154 / ratetol=1.0 / qcomp=0.60 / qpmin=0 / qpmax=69 / qpstep=4 / cplxblur=20.0 / qblur=0.5 / ip_ratio=1.40 / aq=1:1.00
Language : French
Default : Yes
Forced : No
Audio #1
ID : 2
Format : AC-3
Format/Info : Audio Coding 3
Mode extension : CM (complete main)
Format settings, Endianness : Big
Codec ID : A_AC3
Duration : 1h 45mn
Bit rate mode : Constant
Bit rate : 192 Kbps
Channel(s) : 1 channel
Channel positions : Front: C
Sampling rate : 48.0 KHz
Bit depth : 16 bits
Compression mode : Lossy
Stream size : 145 MiB (3%)
Title : DVO – Видеоимпульс
Language : Russian
Default : Yes
Forced : No
Audio #2
ID : 3
Format : AC-3
Format/Info : Audio Coding 3
Mode extension : CM (complete main)
Format settings, Endianness : Big
Codec ID : A_AC3
Duration : 1h 45mn
Bit rate mode : Constant
Bit rate : 192 Kbps
Channel(s) : 1 channel
Channel positions : Front: C
Sampling rate : 48.0 KHz
Bit depth : 16 bits
Compression mode : Lossy
Stream size : 145 MiB (3%)
Title : VO
Language : Russian
Default : No
Forced : No
Audio #3
ID : 4
Format : DTS
Format/Info : Digital Theater Systems
Mode : 16
Format settings, Endianness : Big
Codec ID : A_DTS
Duration : 1h 45mn
Bit rate mode : Constant
Bit rate : 768 Kbps
Channel(s) : 1 channel
Channel positions : Front: C
Sampling rate : 48.0 KHz
Bit depth : 16 bits
Compression mode : Lossy
Stream size : 581 MiB (12%)
Title : Original
Language : French
Default : No
Forced : No
Text #1
ID : 5
Format : UTF-8
Codec ID : S_TEXT/UTF8
Codec ID/Info : UTF-8 Plain Text
Title : R5
Language : Russian
Default : No
Forced : No
Text #2
ID : 6
Format : UTF-8
Codec ID : S_TEXT/UTF8
Codec ID/Info : UTF-8 Plain Text
Language : English
Default : No
Forced : No
Menu
00:00:00.000 : fr:01. Générique
00:12:56.820 : fr:02. La rencontre
00:24:19.860 : fr:03. Chez Maud
00:43:47.180 : fr:04. Le départ de Vidal
00:54:39.780 : fr:05. La petite annonce
00:59:33.980 : fr:06. La chambre d'ami
01:03:28.740 : fr:07. Le jour se lève
01:05:56.780 : fr:08. Les principes
01:09:49.820 : fr:09. Le baiser
01:18:39.740 : fr:10. 10% de chance
01:29:06.899 : fr:11. De la vraie et de la fausse conversation
01:33:17.659 : fr:12. À l'église
01:36:54.740 : fr:13. Un aveu
01:40:44.579 : fr:14. À la mer



Показать сообщения:    

Текущее время: 03-Дек 20:45

Часовой пояс: UTC + 3


Вы не можете начинать темы
Вы не можете отвечать на сообщения
Вы не можете редактировать свои сообщения
Вы не можете удалять свои сообщения
Вы не можете голосовать в опросах
Вы не можете прикреплять файлы к сообщениям
Вы не можете скачивать файлы