Выгодная партия / Хороший брак / Le beau mariage / A Good Marriage (Эрик Ромер / Eric Rohmer) [1982 г., Франция, драма, мелодрама, комедия, BDRip 720p] Original Fre + Sub (Rus, Eng)


 

[Цитировать]

Выгодная партия / Хороший брак / Le beau mariage- Год выпуска: 1982
Страна: Франция
Жанр: драма, мелодрама, комедия
Продолжительность: 01:34:58
Перевод: Субтитры
Оригинальная аудиодорожка: Французская
Cубтитры: Русские, английские-Режиссер: Эрик Ромер / Eric Rohmer
В ролях: Беатрис Роман, Андре Дюссолье, Федор Аткин, Ариель Домбаль, Югетт Фаге, Софи Ренуар, Херв Дюамель, Паскаль Греггори, Виржини Тевене-Описание:
Молодая женщина решает, что ей пора выходить замуж. Подобрав подходящего кандидата на роль мужа - увлеченного работой юриста - она рассказывает всем своим друзьям о предстоящей свадьбе...- | | Сэмпл-Качество: BDRip 720p (MELiTE)
Контейнер: MKV
Видео: x264, 960x720 (1.33:1), 25 fps, 4174 kbps
Аудио: Французский DTS 1.0, 48 kHz, 768 kbps, 16-bit
Формат субтитров: softsub (SRT)

Скриншоты


[

MI

General
Unique ID : 183096691215663150834588396522596552510 (0x89BF23D934ACCE77A048E4CA68F94F3E)
Complete name : A.Good.Marriage.1982.720p.BluRay.x264-MELiTE.mkv
Format : Matroska
Format version : Version 2
File size : 3.28 GiB
Duration : 1h 34mn
Overall bit rate : 4 945 Kbps
Movie name : Le beau mariage / Выгодная партия (1982)
Encoded date : UTC 2014-10-13 19:10:09
Writing application : mkvmerge v7.0.0 ('Where We Going') 64bit built on Jun 9 2014 15:16:27
Writing library : libebml v1.3.0 + libmatroska v1.4.1
Attachment : Yes
Video
ID : 1
Format : AVC
Format/Info : Advanced Video Codec
Format profile : High@L4.1
Format settings, CABAC : Yes
Format settings, ReFrames : 5 frames
Codec ID : V_MPEG4/ISO/AVC
Duration : 1h 34mn
Bit rate : 4 174 Kbps
Width : 960 pixels
Height : 720 pixels
Display aspect ratio : 4:3
Frame rate mode : Constant
Frame rate : 25.000 fps
Color space : YUV
Chroma subsampling : 4:2:0
Bit depth : 8 bits
Scan type : Progressive
Bits/(Pixel*Frame) : 0.242
Stream size : 2.71 GiB (82%)
Title : A.Good.Marriage.1982.720p.BluRay.x264-MELiTE
Writing library : x264 core 142 r2479 dd79a61
Encoding settings : cabac=1 / ref=5 / deblock=1:0:0 / analyse=0x3:0x113 / me=umh / subme=7 / psy=1 / psy_rd=1.00:0.00 / mixed_ref=1 / me_range=16 / chroma_me=1 / trellis=1 / 8x8dct=1 / cqm=0 / deadzone=21,11 / fast_pskip=0 / chroma_qp_offset=-2 / threads=12 / lookahead_threads=2 / sliced_threads=0 / nr=0 / decimate=1 / interlaced=0 / bluray_compat=0 / constrained_intra=0 / bframes=3 / b_pyramid=2 / b_adapt=1 / b_bias=0 / direct=1 / weightb=1 / open_gop=0 / weightp=2 / keyint=250 / keyint_min=25 / scenecut=40 / intra_refresh=0 / rc_lookahead=40 / rc=2pass / mbtree=1 / bitrate=4174 / ratetol=1.0 / qcomp=0.60 / qpmin=0 / qpmax=69 / qpstep=4 / cplxblur=20.0 / qblur=0.5 / ip_ratio=1.40 / aq=1:1.00
Language : French
Default : Yes
Forced : No
Audio
ID : 4
Format : DTS
Format/Info : Digital Theater Systems
Mode : 16
Format settings, Endianness : Big
Codec ID : A_DTS
Duration : 1h 34mn
Bit rate mode : Constant
Bit rate : 768 Kbps
Channel(s) : 1 channel
Channel positions : Front: C
Sampling rate : 48.0 KHz
Bit depth : 16 bits
Compression mode : Lossy
Stream size : 522 MiB (16%)
Title : Original
Language : French
Default : No
Forced : No
Text #1
ID : 2
Format : UTF-8
Codec ID : S_TEXT/UTF8
Codec ID/Info : UTF-8 Plain Text
Language : Russian
Default : Yes
Forced : No
Text #2
ID : 3
Format : UTF-8
Codec ID : S_TEXT/UTF8
Codec ID/Info : UTF-8 Plain Text
Language : English
Default : No
Forced : No
Menu
00:00:00.000 : fr:01. Je vais me marier
00:07:54.900 : fr:02. La copine
00:15:55.100 : fr:03. La mère
00:22:08.980 : fr:04. Rencontre
00:27:59.380 : fr:05. Le Jersey
00:34:27.100 : fr:06. Tête à tête
00:40:12.820 : fr:07. Le renvoi
00:50:29.780 : fr:08. Discussion mère fille
00:59:41.300 : fr:09. Soirée d'anniversaire
01:14:43.580 : fr:10. Petite dépression
01:20:10.580 : fr:11. Le taureau par les cornes
01:31:26.500 : fr:12. Le raisin était trop vert



Показать сообщения:    

Текущее время: 21-Янв 11:38

Часовой пояс: UTC + 3


Вы не можете начинать темы
Вы не можете отвечать на сообщения
Вы не можете редактировать свои сообщения
Вы не можете удалять свои сообщения
Вы не можете голосовать в опросах
Вы не можете прикреплять файлы к сообщениям
Вы не можете скачивать файлы