Теорема / Teorema (Пьер Паоло Пазолини / Pier Paolo Pasolini) [1968, Италия, драма, BDRemux 1080p] 2x MVO + Original Eng + Comments (Eng) + Sub (Rus, Eng)


 

[Цитировать]

Теорема / Teorema
Страна: Италия
Жанр: Драма
Год выпуска: 1968
Продолжительность: 01:38:14
Перевод: Профессиональный (многоголосый закадровый) Cinema Prestige
Перевод 2: Профессиональный (многоголосый закадровый) ? (запись с TV)
Cубтитры: русские, английские
Оригинальная аудиодорожка: английский
Режиссер: Пьер Паоло Пазолини / Pier Paolo Pasolini
В ролях: Сильвана Мангано, Теренс Стэмп, Массимо Джиротти, Анна Вяземская, Лаура Бетти, Андре Хосе-Круз Сублетт, Нинетто Даволи, Карло Де Мехо, Адель Камбрия, Луиджи Барбини, Иван (Джованни) Скратулья, Альфонсо Гатто, Чезаре Гарболи, Сюзанна Пазолини
Описание: В особняке крупного итальянского фабриканта появляется красивый молодой человек, который производит неизгладимое впечатление на всех — от хозяина до горничной. Когда таинственный гость исчезает, привычный уклад буржуазного семейства разрушается…
Сэмпл: http://sendfile.su/1034660
Тип релиза: BDRemux 1080p
Контейнер: MKV
Видео: MPEG-4 AVC, 1920x1080p (1.84:1), 24 fps, 36999 kbps
Аудио: Russian, AC3 2.0, 48 kHz, 192 kbps
Аудио 2: Russian, AC3 2.0, 48 kHz, 192 kbps
Аудио 3: Italian, LPCM 2.0, 48 kHz, 1536 kbps
Аудио 4: English, LPCM 2.0, 48 kHz, 1536 kbps
Аудио 5: English, LPCM 2.0, 48 kHz, 1536 kbps (Director’s comments)
Субтитры: Russian, English, English (Director’s comments)
Формат субтитров: softsub (SRT)

MediaInfo

Format : Matroska
Format version : Version 4 / Version 2
File size : 28.8 GiB
Duration : 1h 38mn
Overall bit rate : 42.0 Mbps
Encoded date : UTC 2014-10-13 13:16:32
Writing application : mkvmerge v6.9.1 ('Blue Panther') 32bit built on Apr 18 2014 18:15:44
Writing library : libebml v1.3.0 + libmatroska v1.4.1
Video
ID : 1
Format : AVC
Format/Info : Advanced Video Codec
Format profile : High@L4.1
Format settings, CABAC : Yes
Format settings, ReFrames : 4 frames
Codec ID : V_MPEG4/ISO/AVC
Duration : 1h 38mn
Bit rate mode : Constant
Nominal bit rate : 37.0 Mbps
Width : 1 920 pixels
Height : 1 080 pixels
Display aspect ratio : 16:9
Frame rate mode : Constant
Frame rate : 24.000 fps
Standard : NTSC
Color space : YUV
Chroma subsampling : 4:2:0
Bit depth : 8 bits
Scan type : Progressive
Bits/(Pixel*Frame) : 0.743
Language : English
Default : No
Forced : No
Color primaries : BT.709
Transfer characteristics : BT.709
Matrix coefficients : BT.709
Audio #1
ID : 2
Format : AC-3
Format/Info : Audio Coding 3
Mode extension : CM (complete main)
Format settings, Endianness : Big
Codec ID : A_AC3
Duration : 1h 38mn
Bit rate mode : Constant
Bit rate : 192 Kbps
Channel count : 2 channels
Channel positions : Front: L R
Sampling rate : 48.0 KHz
Bit depth : 16 bits
Compression mode : Lossy
Stream size : 135 MiB (0%)
Language : Russian
Default : Yes
Forced : No
Audio #2
ID : 3
Format : AC-3
Format/Info : Audio Coding 3
Mode extension : CM (complete main)
Format settings, Endianness : Big
Codec ID : A_AC3
Duration : 1h 38mn
Bit rate mode : Constant
Bit rate : 192 Kbps
Channel count : 2 channels
Channel positions : Front: L R
Sampling rate : 48.0 KHz
Bit depth : 16 bits
Compression mode : Lossy
Stream size : 135 MiB (0%)
Language : Russian
Default : No
Forced : No
Audio #3
ID : 4
Format : PCM
Codec ID : A_PCM/INT/LIT
Duration : 1h 38mn
Bit rate mode : Constant
Channel count : 2 channels
Sampling rate : 48.0 KHz
Bit depth : 16 bits
Language : Italian
Default : No
Forced : No
Audio #4
ID : 5
Format : PCM
Codec ID : A_PCM/INT/LIT
Duration : 1h 38mn
Bit rate mode : Constant
Channel count : 2 channels
Sampling rate : 48.0 KHz
Bit depth : 16 bits
Language : English
Default : No
Forced : No
Audio #5
ID : 6
Format : PCM
Codec ID : A_PCM/INT/LIT
Duration : 1h 38mn
Bit rate mode : Constant
Channel count : 2 channels
Sampling rate : 48.0 KHz
Bit depth : 16 bits
Title : Director’s comments
Language : English
Default : No
Forced : No
Text #1
ID : 7
Format : UTF-8
Codec ID : S_TEXT/UTF8
Codec ID/Info : UTF-8 Plain Text
Language : Russian
Default : No
Forced : No
Text #2
ID : 8
Format : UTF-8
Codec ID : S_TEXT/UTF8
Codec ID/Info : UTF-8 Plain Text
Language : English
Default : No
Forced : No
Text #3
ID : 9
Format : UTF-8
Codec ID : S_TEXT/UTF8
Codec ID/Info : UTF-8 Plain Text
Title : Director’s comments
Language : English
Default : No
Forced : No
Menu
00:00:00.000 : en:Chapter 01
00:03:55.583 : en:Chapter 02
00:08:15.416 : en:Chapter 03
00:09:14.500 : en:Chapter 04
00:14:29.583 : en:Chapter 05
00:19:05.333 : en:Chapter 06
00:26:25.458 : en:Chapter 07
00:35:30.791 : en:Chapter 08
00:41:08.833 : en:Chapter 09
00:48:58.625 : en:Chapter 10
01:01:20.666 : en:Chapter 11
01:13:10.375 : en:Chapter 12
01:26:33.416 : en:Chapter 13
01:36:15.041 : en:Chapter 14

Скриншоты







Показать сообщения:    

Текущее время: 06-Дек 11:13

Часовой пояс: UTC + 3


Вы не можете начинать темы
Вы не можете отвечать на сообщения
Вы не можете редактировать свои сообщения
Вы не можете удалять свои сообщения
Вы не можете голосовать в опросах
Вы не можете прикреплять файлы к сообщениям
Вы не можете скачивать файлы